Welcome Guest ( Log In | Register )

 
Reply to this topicStart new topic
> Aberrant Construct - Scaphism [ep] (2018), Brutal Death Metal
post Jan 4 2018, 14:03:53
Post #1

Serial Uploader
Group Icon
Group: V.I.P
Posts: 33,302
Releases: 31573
From: Lithuania
On Forums: 10 years 5 months
Thanks: 360731 time(s)
Lithuania


(IMG:https://metalarea.org/images/audiocovers/2018_Jan/acov_tid300082_thumb.jpg)

*Artist: Aberrant Construct
*Album: Scaphism [ep]
*Year: 2018
*Genre: Brutal Death Metal
*Country: United States (IMG:https://metalarea.org/forum/style_images/flags/United%20States.png)
*Format: mp3@CBR320kbps
*Size: 55MB

Tracklist:
01. Intro 01:48
02. Monolith Of Unearthly Devastation 03:55
03. Purification 02:41
04. Toxic King 04:22
05. Ripped In Fucking Half 04:13
06. Inconceivable Failure 03:03
07. Scaphism 04:04
******************************
Total playing time: 24:06



(IMG:https://metalarea.org/images/youtube.png)

Technical info
(IMG:https://metalarea.org/images/spectrogram/2018_Jan/d3804735136457311b6ec98038dcc60d.png)
Input File: 02. Monolith of Unearthly Devastation.mp3
Channels : 2
Sample Rate : 44100
Precision : 16-bit
Duration : 00:03:55.96 = 10405968 samples = 17697.2 CDDA sectors
File Size : 9.44M
Bit Rate : 320k
Sample Encoding: MPEG audio (layer I, II or III)
Comments :
Title=Monolith of Unearthly Devastation
Artist=Aberrant Construct
Album=Scaphism
Tracknumber=2/7
Year=2018



Register


Thanks:
(2) Rosen, uk82,
Go to the top of the page
  Insert nick Quick quote
+Quote Post

Reply to this topicStart new topic
1 User(s) are reading this topic (1 Guests and 0 Anonymous Users)
0 Members:

 



- Lo-Fi Version Support form
Copyrights and abuse reports form
Time is now: 20th November 2018 - 16:47:40