Welcome Guest ( Log In | Register )

> И неформату есть предел.

Рэп/хип-хоп/шансон/поп удаляются. Для них есть свои порталы.

 
ОтветитьСоздать новую тему
> Atakama - Теряя себя (2007), Nu Metal
post Jan 4 2018, 15:50:47
Post #1

i listen to black metal
**************
Group: Металариец
Posts: 2,153
Releases: 128
From: Москва-Лианозово
On Forums: 11 years 4 months
Thanks: 1987 time(s)
Russian Federation


(IMG:https://metalarea.org/images/audiocovers/2018_Jan/acov_tid300087_thumb.jpg)

*Artist: Atakama
*Album: Теряя себя
*Year: 2007
*Genre: Nu Metal
*Country: Russian Federation (IMG:https://metalarea.org/forum/style_images/flags/Russian%20Federation.png)
*Format: mp3@CBR320kbps
*Size: 79MB

Tracklist:
01- Теряя себя 3:28
02- Боль 3:49
03- Холодное сердце (Feat. Кэш (Слот) и К.Немоляев) 4:12
04- Самоубийца 3:14
05- Жить 3:00
06- Колыбельная 3:34
07- Крылья 3:47
08- Шаг в сторону 4:51
09- Чувство сна 3:26
10- На небе 3:48
11- Кукла 2:08
******************************
Total playing time: 39:17

(IMG:https://metalarea.org/images/youtube.png)

Technical info
(IMG:https://metalarea.org/images/spectrogram/2018_Jan/ff15151f1408f1924d6cc7778552af62.png)
Input File: 02 Ты.mp3
Channels : 2
Sample Rate : 44100
Precision : 16-bit
Duration : 00:03:26.76 = 9117896 samples = 15506.6 CDDA sectors
File Size : 8.27M
Bit Rate : 320k
Sample Encoding: MPEG audio (layer I, II or III)
Comments :
Title=Г’Г»
Artist=Atakama
Album=Çâ¸çäû
Tracknumber=2
Year=2009
Genre=Nu-Metal



Register


Thanks:
Вернуться к началу страницы
  Insert nick Quick quote
+Цитировать сообщение

ОтветитьСоздать новую тему
2 User(s) are reading this topic (2 Guests and 0 Anonymous Users)
0 Members:

 



- Lo-Fi Version Support form
Copyrights and abuse reports form
Time is now: 20th May 2018 - 18:19:41