Welcome Guest ( Log In | Register )

 
ОтветитьСоздать новую тему
> Łeb Prosiaka - Wielkie Otwarcie Parasola W Dupie (2004), Grindcore/Crossover
post Jan 4 2018, 22:08:25
Post #1

Литр
*
Group: Подсевший
Posts: 84
Releases: 25
From: Mighty Warriors
On Forums: 11 years 8 months
Thanks: 292 time(s)
Russian Federation


(IMG:http://metalarea.org/images/audiocovers/2018_Jan/acov_tid300097_thumb.jpg)

*Artist: Łeb Prosiaka
*Album: Wielkie Otwarcie Parasola W Dupie
*Year: 2004
*Genre: Grindcore/Crossover
*Country: Poland (IMG:http://metalarea.org/forum/style_images/flags/Poland.png)
*Format: mp3@CBR192kbps
*Size: 30MB

Tracklist:
1.Stara qrwa
2.Dwdch!
3.Łeb prosiaka
4.Haujot
5.Disgust
6.Tatar
7.Stara kobieta
8.Hujqrwadupacipa
9.Agatatoples
10.Stara dupa
11.Gorzoł
12.Wyliż go
13.Pokraka
14.Stara cipa
15.Only Heavy Metal
******************************
Total playing time: 21:55

Extended info
Low bitrate


Technical info
(IMG:http://metalarea.org/images/spectrogram/2018_Jan/24cf2772700ad9c01ffb7a4398c4e062.png)
Input File: 07 - Stara Kobieta.mp3
Channels : 2
Sample Rate : 44100
Precision : 16-bit
Duration : 00:00:51.35 = 2264667 samples = 3851.47 CDDA sectors
File Size : 1.23M
Bit Rate : 192k
Sample Encoding: MPEG audio (layer I, II or III)
Comments :
Title=Stara Kobieta
Artist=ЕЃeb Prosiaka
Album=Wielkie Otwarcie Parasola w Dupie
Tracknumber=7
Year=2004
Genre=12



Register


Thanks:
(1) Rosen,
Вернуться к началу страницы
  Insert nick Quick quote
+Цитировать сообщение

ОтветитьСоздать новую тему
1 User(s) are reading this topic (1 Guests and 0 Anonymous Users)
0 Members:

 



- Lo-Fi Version Support form
Copyrights and abuse reports form
Time is now: 26th May 2018 - 14:49:14