Welcome Guest ( Log In | Register )

> Правила / Rules

Тут только для чтения лежат низкобитрейтные (<192kbps) релизы, для которых есть аналоги в высокобитрейтных форумах.

Here goes (and stand in read only mode) low bitrate releases (<192kbps) which were already replaced by high bitrate releases in corresponding forums.

> Hermóðr - Midnight Eclipse (2018), Atmospheric Black Metal (D)
post Jan 5 2018, 08:45:56
Post #1

赑屃
***
Group: Завсегдатай
Posts: 205
Releases: 5
From: Луганск
On Forums: 1 year 4 months
Thanks: 100 time(s)
Russian Federation


(IMG:http://metalarea.org/images/audiocovers/2018_Jan/acov_tid300114_thumb.jpg)

*Artist: Hermóðr
*Album: Midnight Eclipse
*Year: 2018
*Genre: Atmospheric Black Metal
*Country: Sweden (IMG:http://metalarea.org/forum/style_images/flags/Sweden.png)
*Format: mp3@CBR128kbps (IMG:http://metalarea.org/images/bit_low.gif)
*Size: 51MB

Tracklist:
01. A Frozen Paradise 10:36
02. It Was Written 06:04
03. Midnight Eclipse 06:28
04. A Full Moon Night 08:09
05. Woodland 02:31
06. The Lonely Old Man 09:52
07. The Wolf's Lair 05:55
08. Cold Dominion 06:19
******************************
Total playing time: 55:54

Preview 1


Technical info
(IMG:http://metalarea.org/images/spectrogram/2018_Jan/bc48a6c677741ad5cc8405af3c020fe5.png)
Input File: 05. Woodland.mp3
Channels : 2
Sample Rate : 44100
Precision : 16-bit
Duration : 00:02:31.68 = 6689088 samples = 11376 CDDA sectors
File Size : 2.44M
Bit Rate : 129k
Sample Encoding: MPEG audio (layer I, II or III)
Comments :
Title=Woodland
Artist=HermГіГ°r
Album=Midnight Eclipse
Tracknumber=05
Year=2018
Genre=Atmospheric Black



Register


Go to the top of the page
  Insert nick Quick quote
+Quote Post
 
Start new topic
Replies (1 - 3)
post Jan 5 2018, 09:41:47
Post #2

赑屃
***
Group: Завсегдатай
Posts: 205
Releases: 5
From: Луганск
On Forums: 1 year 4 months
Thanks: 100 time(s)
Russian Federation


Не помню прежних работ этого плодовитого шведа Рафна, но этот альбом - вполне приличный представитель меланхоличного и атмосферного подотдела депрессивного блэка, в котором он начинает обильно удобряться зефиром.. Женский вокал Хельги в 04. A Full Moon Night даже несколько доставляет.. Музыка без острых углов и бьющих по мозгам всплесков, чудесный саундтрек ночных прогулок по тихому заснеженному зимнему лесу..

*188 Hermodr - Midnight Eclipse (Full Album) https://youtu.be/VwPYRsAgoOM
Go to the top of the page
  Insert nick Quick quote
+Quote Post
post Jan 5 2018, 10:25:18
Post #3

Время Мары
**************
Group: Металариец
Posts: 2,913
Releases: 371
From: Харьков
On Forums: 9 years 2 months
Thanks: 7108 time(s)
Ukraine


bc_, Ето только первый альбом в етом году,думаю альбомов 6-7 еще впереди (IMG:style_emoticons/default/crazy.gif)
Go to the top of the page
  Insert nick Quick quote
+Quote Post
post Jan 5 2018, 13:39:59
Post #4

Самый Тихий Час
**************
Group: Металариец
Posts: 5,553
Releases: 0
On Forums: 8 years 9 months
Thanks: 2399 time(s)
Unknown


О, Хреномордр! Давно не было.
Go to the top of the page
  Insert nick Quick quote
+Quote Post

Причина закрытия (Хогги 09-02-2018):
Closed TopicStart new topic
1 User(s) are reading this topic (1 Guests and 0 Anonymous Users)
0 Members:

 



- Lo-Fi Version Support form
Copyrights and abuse reports form
Time is now: 16th August 2018 - 23:20:58