Welcome Guest ( Log In | Register )

 
ОтветитьСоздать новую тему
> Lacrimacorpus Dissolvens - Void (2017), Progressive Melodic Death/Doom Metal/Ambient
post Jan 5 2018, 14:30:24
Post #1

Шесть Литров
******
Group: Металариец
Posts: 685
Releases: 579
From: Новороссийск
On Forums: 6 years 9 months
Thanks: 9906 time(s)
Russian Federation


(IMG:https://metalarea.org/images/audiocovers/2018_Jan/acov_tid300133_thumb.jpg)

*Artist: Lacrimacorpus Dissolvens
*Album: Void
*Year: 2017
*Genre: Progressive Melodic Death/Doom Metal/Ambient
*Country: Mexico (IMG:https://metalarea.org/forum/style_images/flags/Mexico.png)
*Format: mp3@CBR128kbps (IMG:https://metalarea.org/images/bit_low.gif)
*Size: 66MB

Tracklist:
01. Infancy 04:36
02. Within 05:40
03. Assymetry 09:16
04. Wandering Steps 02:30
05. Dust/Magma 10:04
06. Minimal 05:09
07. The Mirror 07:06
08. Shining 10:08
09. Epilogue (Outro) 02:00
10. Chaos And Life Reborn 15:36
******************************
Total playing time: 1:12:10




Technical info
(IMG:https://metalarea.org/images/spectrogram/2018_Jan/5cfb02737aefcff0340f1c9b3d6b9219.png)
Input File: 01. Infancy.mp3
Channels : 2
Sample Rate : 44100
Precision : 16-bit
Duration : 00:04:36.57 = 12196605 samples = 20742.5 CDDA sectors
File Size : 4.43M
Bit Rate : 128k
Sample Encoding: MPEG audio (layer I, II or III)
Comments :
Title=Infancy
Artist=Lacrimacorpus Dissolvens
Album=Void
Tracknumber=01
Year=2017
Genre=Progressive Metal



Register


Вернуться к началу страницы
  Insert nick Quick quote
+Цитировать сообщение

ОтветитьСоздать новую тему
1 User(s) are reading this topic (1 Guests and 0 Anonymous Users)
0 Members:

 



- Lo-Fi Version Support form
Copyrights and abuse reports form
Time is now: 20th February 2018 - 06:58:56