Welcome Guest ( Log In | Register )

> Warthorn - G.O.D. (2018), Thrash/Death Metal
post Jan 5 2018, 14:45:42
Post #1

Serial Uploader
Group Icon
Group: V.I.P
Posts: 32,443
Releases: 30748
From: Lithuania
On Forums: 9 years 11 months
Thanks: 353236 time(s)
Lithuania


(IMG:https://metalarea.org/images/audiocovers/2018_Jan/acov_tid300134_thumb.jpg)

*Artist: Warthorn
*Album: G.O.D.
*Year: 2018
*Genre: Thrash/Death Metal
*Country: Greece (IMG:https://metalarea.org/forum/style_images/flags/Greece.png)
*Format: mp3@CBR320kbps
*Size: 114MB

Tracklist:
01. Vandal Resuresction 03:48
02. Drunk by Hatred 03:31
03. Lost Case 03:38
04. Crypt 03:41
05. Thorns of War 03:23
06. Scythopolis 08:08
07. Religions of the Dead 05:10
08. G.O.D. 03:10
09. AK 666 03:40
10. Bible of the Dead 05:29
11. Termination Ritual 05:22
******************************
Total playing time: 49:00



Technical info
(IMG:https://metalarea.org/images/spectrogram/2018_Jan/9b43713ee677d2a3a9b50036cb9fe75b.png)
Input File: 04. Crypt.mp3
Channels : 2
Sample Rate : 44100
Precision : 16-bit
Duration : 00:03:41.12 = 9751568 samples = 16584.3 CDDA sectors
File Size : 9.04M
Bit Rate : 327k
Sample Encoding: MPEG audio (layer I, II or III)
Comments :
Title=Crypt
Artist=Warthorn
Album=G.o.d.
Tracknumber=4/11
Year=2018
Discnumber=1/1



Register


Вернуться к началу страницы
  Insert nick Quick quote
+Цитировать сообщение
 
Создать новую тему
Replies (1 - 3)
post Jan 6 2018, 12:29:33
Post #2

Group: Подсевший
Posts: 36
Releases: 0
On Forums: 8 years 6 months
Thanks: 9 time(s)
Unknown


Атличный олдскулище!


Thanks:
Вернуться к началу страницы
  Insert nick Quick quote
+Цитировать сообщение
post Jan 6 2018, 15:02:20
Post #3

Правь статус, ####!111
**************
Group: Металариец
Posts: 12,962
Releases: 9224
From: Г.Харьков
On Forums: 6 years 1 week
Thanks: 149957 time(s)
Unknown


почему он только в лоу оказался (IMG:style_emoticons/default/hmm.gif) -это рип из айтюнса.В таком качестве и с таким спектрами его продают на всех цифровых платформах,включая бандкамп.
Вернуться к началу страницы
  Insert nick Quick quote
+Цитировать сообщение
post Jan 6 2018, 19:15:40
Post #4

Group: Подсевший
Posts: 36
Releases: 0
On Forums: 8 years 6 months
Thanks: 9 time(s)
Unknown


ЦИТАТА(Samaritianin @ Jan 6 2018, 17:02:20) *
почему он только в лоу оказался (IMG:style_emoticons/default/hmm.gif) -это рип из айтюнса.В таком качестве и с таким спектрами его продают на всех цифровых платформах,включая бандкамп.

лоу потому что он реально звучит так, будто битрейт 192-220 килобит. Ведь 320 можно сделать из любого битрейта - хоть из 16, хоть из 256 килобит


Thanks:
Вернуться к началу страницы
  Insert nick Quick quote
+Цитировать сообщение

ОтветитьСоздать новую тему
1 User(s) are reading this topic (1 Guests and 0 Anonymous Users)
0 Members:

 



- Lo-Fi Version Support form
Copyrights and abuse reports form
Time is now: 21st May 2018 - 16:15:12