Welcome Guest ( Log In | Register )

 
Reply to this topicStart new topic
> Atomicide - Spreading The Cult Of Death (2013), Black/Death Metal
post Jan 6 2018, 02:32:46
Post #1

Правь статус, ####!616
**************
Group: Металариец
Posts: 4,566
Releases: 3154
From: 55°35’N 38°08’E
On Forums: 10 years 9 months
Thanks: 59473 time(s)
Unknown


(IMG:http://metalarea.org/images/audiocovers/2018_Jan/acov_tid300148_thumb.jpg)

*Artist: Atomicide
*Album: Spreading The Cult Of Death
*Year: 2013
*Genre: Black/Death Metal
*Country: Chile (IMG:http://metalarea.org/forum/style_images/flags/Chile.png)
*Format: mp3@CBR320kbps
*Size: 55MB

Tracklist:
1.Intro + Spreading The Cult Of Death 02:39
2.Atomic Rites 01:55
3.Son Of Destruction 01:12
4.Holocaust (Insanity's Storm) 02:31
5.Horror Of War 01:58
6.March Of Doom/Ritual Origes 01:26
7.Into The Graves 03:17
8.Perverse Orgies 02:00
9.Sadistic Blood Ritual 03:50
10.Sulphurus Winds Of Hecatombe 03:10
******************************
Total playing time: 23:58



(IMG:http://metalarea.org/images/youtube.png)

Extended info
12" Vinyl, Death Division Rituals (Limited to 300 copies.)


Technical info
(IMG:http://metalarea.org/images/spectrogram/2018_Jan/d8bcb4e317d5bfccecbc323f69fe119d.png)
Input File: 02 Atomic Rites.mp3
Channels : 2
Sample Rate : 44100
Precision : 16-bit
Duration : 00:01:55.84 = 5108544 samples = 8688 CDDA sectors
File Size : 4.75M
Bit Rate : 328k
Sample Encoding: MPEG audio (layer I, II or III)
Comments :
Title=Atomic Rites
Artist=ATOMICIDE
Album=SPREADING THE CULT OF DEATH
Tracknumber=2
Year=2013
Genre=Black/Death Metal



Register


Go to the top of the page
  Insert nick Quick quote
+Quote Post

Reply to this topicStart new topic
1 User(s) are reading this topic (1 Guests and 0 Anonymous Users)
0 Members:

 



- Lo-Fi Version Support form
Copyrights and abuse reports form
Time is now: 24th April 2019 - 19:04:07