Welcome Guest ( Log In | Register )

 
ОтветитьСоздать новую тему
> À Répit - Magna Leggenda (2017), Atmospheric Black Metal
post Jan 6 2018, 07:37:20
Post #1

Аннигилятор пивА
Group Icon
Group: V.I.P
Posts: 46,693
Releases: 14016
From: Koenigsberg - TILZIT
On Forums: 11 years 11 months
Thanks: 310896 time(s)
Russian Federation


(IMG:https://metalarea.org/images/audiocovers/2018_Jan/acov_tid300150_thumb.jpg)

*Artist: À Répit
*Album: Magna Leggenda
*Year: 2017
*Genre: Atmospheric Black Metal
*Country: Italy (IMG:https://metalarea.org/forum/style_images/flags/Italy.png)
*Format: mp3@CBR320kbps
*Size: 95MB

Tracklist:
1. La Danse Du Tétras 02:27
2. Magna leggenda 06:11
3. Lo Spirito Dentro Al Monte 01:52
4. Libera Nos 05:14
5. Il Respiro Dell'Alpe 03:22
6. Revenants 04:50
7. Arpian 05:45
8. Il Muro Del Diavolo 05:47
9. Il Sentiero Dei Morti 06:17
******************************
Total playing time: 41:45




Extended info
Gypaetus - Guitars, Bass (ex-Nefarium)
Skarn - Vocals, Drums, Guitars, Synth (Dave Sixx, Entirety, Paymon, Nurmur, ex-Heathen/Lifecode)


Technical info
(IMG:https://metalarea.org/images/spectrogram/2018_Jan/89396d2da91bfb4ca7e28cdd8f2ba09b.png)
Input File: 02. Magna Leggenda.mp3
Channels : 2
Sample Rate : 44100
Precision : 16-bit
Duration : 00:06:11.42 = 16379622 samples = 27856.5 CDDA sectors
File Size : 14.9M
Bit Rate : 320k
Sample Encoding: MPEG audio (layer I, II or III)
Comments :
Title=Magna Leggenda
Artist=A Repit
Album=Magna Leggenda
Tracknumber=2/9
Year=2017



Register


Вернуться к началу страницы
  Insert nick Quick quote
+Цитировать сообщение

ОтветитьСоздать новую тему
1 User(s) are reading this topic (1 Guests and 0 Anonymous Users)
0 Members:

 



- Lo-Fi Version Support form
Copyrights and abuse reports form
Time is now: 26th May 2018 - 14:53:10