Welcome Guest ( Log In | Register )

 
Reply to this topicStart new topic
> Neftaraka - Revelation Of Suppression [ep] (2016), Black Metal (D)
post Jan 6 2018, 13:31:07
Post #1

Семь Литров
*******
Group: Металариец
Posts: 782
Releases: 164
On Forums: 7 years 10 months
Thanks: 1973 time(s)
Albania


(IMG:https://metalarea.org/images/audiocovers/2018_Jan/acov_tid300159_thumb.jpg)

*Artist: Neftaraka
*Album: Revelation Of Suppression [ep]
*Year: 2016
*Genre: Black Metal
*Country: Malaysia (IMG:https://metalarea.org/forum/style_images/flags/Malaysia.png)
*Format: mp3@CBR128kbps (IMG:https://metalarea.org/images/bit_low.gif)
*Size: 24MB

Tracklist:
1. Abandon 06:15
2. Funeral Fog (Mayhem cover) 05:26
3. Dilivium 05:42
4. Death, Pierce Me (Silencer cover) 08:50
******************************
Total playing time: 26:13



Extended info
the cassette is double sided with the same tracks in side A and side B


Technical info
(IMG:https://metalarea.org/images/spectrogram/2018_Jan/9f059b705f5e065ea97f33b3a640a585.png)
Input File: 3 - Dilivium.mp3
Channels : 2
Sample Rate : 44100
Precision : 16-bit
Duration : 00:05:43.09 = 15130357 samples = 25731.9 CDDA sectors
File Size : 5.49M
Bit Rate : 128k
Sample Encoding: MPEG audio (layer I, II or III)



Register


Go to the top of the page
  Insert nick Quick quote
+Quote Post

Reply to this topicStart new topic
1 User(s) are reading this topic (1 Guests and 0 Anonymous Users)
0 Members:

 



- Lo-Fi Version Support form
Copyrights and abuse reports form
Time is now: 17th August 2018 - 14:16:47