Welcome Guest ( Log In | Register )

 
ОтветитьСоздать новую тему
> Life Denial - Take Your Place [best of/compilation] (2017), Old School Death Metal
post Jan 6 2018, 18:18:45
Post #1

Правь статус, ####!111
**************
Group: Металариец
Posts: 12,190
Releases: 8806
From: Г.Харьков
On Forums: 5 years 9 months
Thanks: 140965 time(s)
Unknown


(IMG:http://metalarea.org/images/audiocovers/2018_Jan/acov_tid300165_thumb.jpg)

*Artist: Life Denial
*Album: Take Your Place [best of/compilation]
*Year: 2017
*Genre: Old School Death Metal
*Country: Ukraine (IMG:http://metalarea.org/forum/style_images/flags/Ukraine.png)
*Format: mp3@CBR320kbps
*Size: 71MB

Tracklist:
01. Survey from Inside 03:12
02. Maggots in Head 02:47
03. Survey from Inside (demo version) 02:14
04. Survey from Inside (demo version) 02:08
05. Future Hides in the Past 02:21
06. Here is Nothing 02:42
07. Hear My Voice (demo version) 01:56
08. Raped Christ 02:45
09. Pray Or Betray 02:59
10. Survey from Inside (demo version) 03:12
11. Maggots in Head (demo version) 02:47
12. Hear My Voice (demo version) 02:12
******************************
Total playing time: 31:15



Technical info
(IMG:http://metalarea.org/images/spectrogram/2018_Jan/75045beae87c40d1b5718b0cd392cf39.png)
Input File: 02. Maggots in Head.mp3
Channels : 2
Sample Rate : 44100
Precision : 16-bit
Duration : 00:02:47.46 = 7385118 samples = 12559.7 CDDA sectors
File Size : 6.70M
Bit Rate : 320k
Sample Encoding: MPEG audio (layer I, II or III)
Comments :
Title=Maggots in Head
Artist=Life Denial
Album=Take Your Place
Tracknumber=2/12
Year=2018



Register


Thanks:
(1) Rosen,
Вернуться к началу страницы
  Insert nick Quick quote
+Цитировать сообщение

ОтветитьСоздать новую тему
1 User(s) are reading this topic (1 Guests and 0 Anonymous Users)
0 Members:

 



- Lo-Fi Version Support form
Copyrights and abuse reports form
Time is now: 19th February 2018 - 08:40:52