Welcome Guest ( Log In | Register )

> Правила / Rules

Тут только для чтения лежат низкобитрейтные (<192kbps) релизы, для которых есть аналоги в высокобитрейтных форумах.

Here goes (and stand in read only mode) low bitrate releases (<192kbps) which were already replaced by high bitrate releases in corresponding forums.

> Abusive - Sequences Of Fear (2017), Thrash Metal
post Jan 6 2018, 18:22:17
Post #1

Правь статус, ####!111
**************
Group: Металариец
Posts: 2,681
Releases: 1631
From: Greece
On Forums: 11 years 2 weeks
Thanks: 17173 time(s)
Greece


(IMG:https://metalarea.org/images/audiocovers/2018_Jan/acov_tid300166_thumb.jpg)

*Artist: Abusive
*Album: Sequences Of Fear
*Year: 2017
*Genre: Thrash Metal
*Country: Greece (IMG:https://metalarea.org/forum/style_images/flags/Greece.png)
*Format: mp3@CBR192kbps
*Size: 56MB

Tracklist:
1. You Only Die Once 01:23
2. My Worst Enemy 02:39
3. Insecure Days 03:36
4. Deeper in the Wound 03:08
5. Living Dead 05:06
6. Insanity of War 03:32
7. Organic 04:30
8. Rejected 03:22
9. Sequences of Fear 03:29
10. Mind Control 04:32
******************************
Total playing time: 35:17

Technical info
(IMG:https://metalarea.org/images/spectrogram/2018_Jan/c2b3e39165ed72d4fe740d8f76959c0b.png)
Input File: 1.You Only Die Once.mp3
Channels : 2
Sample Rate : 44100
Precision : 16-bit
Duration : 00:01:23.93 = 3701489 samples = 6295.05 CDDA sectors
File Size : 2.35M
Bit Rate : 224k
Sample Encoding: MPEG audio (layer I, II or III)



Register


Go to the top of the page
  Insert nick Quick quote
+Quote Post
 
Start new topic
Replies (1 - 1)
post Jan 6 2018, 19:30:47
Post #2

Morbid Angel
**************
Group: Металариец
Posts: 4,151
Releases: 0
From: Литва г.Клайпеда
On Forums: 11 years 5 months
Thanks: 1737 time(s)
Lithuania




Thanks:
Go to the top of the page
  Insert nick Quick quote
+Quote Post

Причина закрытия (Borderline1991 21-05-2018): Abusive - Sequences Of Fear (2017)
Closed TopicStart new topic
1 User(s) are reading this topic (1 Guests and 0 Anonymous Users)
0 Members:

 



- Lo-Fi Version Support form
Copyrights and abuse reports form
Time is now: 17th August 2018 - 14:17:26