Welcome Guest ( Log In | Register )

> Dark Tymfristos - And Wolf Remarked The Ancient Path Of Winter Forest (2017), Black Metal/Ambient
post Jan 6 2018, 18:25:40
Post #1

Правь статус, ####!111
**************
Group: Металариец
Posts: 2,681
Releases: 1631
From: Greece
On Forums: 10 years 6 months
Thanks: 17045 time(s)
Greece


(IMG:https://metalarea.org/images/audiocovers/2018_Jan/acov_tid300167_thumb.jpg)

*Artist: Dark Tymfristos
*Album: And Wolf Remarked The Ancient Path Of Winter Forest
*Year: 2017
*Genre: Black Metal/Ambient
*Country: Greece (IMG:https://metalarea.org/forum/style_images/flags/Greece.png)
*Format: mp3@CBR192kbps
*Size: 63MB

Tracklist:
1. Satyr's Melancholy 06:56
2. And Wolf Remarked the Ancient Path of Winter Forest 06:24
3. When Desolated Castles Are Curved by Glaciers 04:50
4. Snow Covered the Pines in the Foggy Valia Kalda 05:06
5. Blizzards over the Frozen Dargonlakes of Timfi Mountain Range 05:09
6. Ruined Bridges Summoned by Geti's Archaic Ghost... 04:34
7. In Erebus of Vikoos Goorge... 04:08
8. Autumn in Medieval Realms 06:17
******************************
Total playing time: 43:24

Technical info
(IMG:https://metalarea.org/images/spectrogram/2018_Jan/da35dcb7eb271dc1f7386bcb7434e332.png)
Input File: 1.Satyr\'s Melancholy.mp3
Channels : 2
Sample Rate : 44100
Precision : 16-bit
Duration : 00:06:56.28 = 18357816 samples = 31220.8 CDDA sectors
File Size : 11.7M
Bit Rate : 224k
Sample Encoding: MPEG audio (layer I, II or III)



Register


Вернуться к началу страницы
  Insert nick Quick quote
+Цитировать сообщение
 
Создать новую тему
Replies (1 - 1)
post Jan 8 2018, 19:23:34
Post #2

Маньяк
**********
Group: Металариец
Posts: 1,442
Releases: 23
From: Spain
On Forums: 10 years 5 months
Thanks: 1093 time(s)
Spain


Вернуться к началу страницы
  Insert nick Quick quote
+Цитировать сообщение

ОтветитьСоздать новую тему
1 User(s) are reading this topic (1 Guests and 0 Anonymous Users)
0 Members:

 



- Lo-Fi Version Support form
Copyrights and abuse reports form
Time is now: 20th February 2018 - 06:59:13