Welcome Guest ( Log In | Register )

 
ОтветитьСоздать новую тему
> Demonic Cult - Tales From The Cult [demo] (2017), Black/Speed Metal
post Jan 6 2018, 18:28:36
Post #1

Правь статус, ####!111
**************
Group: Металариец
Posts: 2,681
Releases: 1631
From: Greece
On Forums: 10 years 9 months
Thanks: 17124 time(s)
Greece


(IMG:https://metalarea.org/images/audiocovers/2018_Jan/acov_tid300170_thumb.jpg)

*Artist: Demonic Cult
*Album: Tales From The Cult [demo]
*Year: 2017
*Genre: Black/Speed Metal
*Country: Greece (IMG:https://metalarea.org/forum/style_images/flags/Greece.png)
*Format: mp3@CBR192kbps
*Size: 10MB

Tracklist:
1. Troopers of Hell 02:59
2. Hear our Legions Crawl 02:52
******************************
Total playing time: 5:51

Technical info
(IMG:https://metalarea.org/images/spectrogram/2018_Jan/89e5a872ba03b91ef51bb19c5eb5592c.png)
Input File: 1.Troopers of Hell.mp3
Channels : 2
Sample Rate : 44100
Precision : 16-bit
Duration : 00:02:59.76 = 7927416 samples = 13482 CDDA sectors
File Size : 5.03M
Bit Rate : 224k
Sample Encoding: MPEG audio (layer I, II or III)
Comments :
Title=Tales from the Cult [Demo] (20
Artist=Demonic Cult
Year=0
Genre=12



Register


Вернуться к началу страницы
  Insert nick Quick quote
+Цитировать сообщение

ОтветитьСоздать новую тему
1 User(s) are reading this topic (1 Guests and 0 Anonymous Users)
0 Members:

 



- Lo-Fi Version Support form
Copyrights and abuse reports form
Time is now: 25th May 2018 - 06:01:50