Welcome Guest ( Log In | Register )

 
Reply to this topicStart new topic
> Fleshdawn Manifesto - Reaching The Coasts Of Thule [demo] (2001), Black/Folk Metal
post Jan 6 2018, 18:31:46
Post #1

Правь статус, ####!111
**************
Group: Металариец
Posts: 2,681
Releases: 1631
From: Greece
On Forums: 11 years 2 weeks
Thanks: 17173 time(s)
Greece


(IMG:https://metalarea.org/images/audiocovers/2018_Jan/acov_tid300171_thumb.png)

*Artist: Fleshdawn Manifesto
*Album: Reaching The Coasts Of Thule [demo]
*Year: 2001
*Genre: Black/Folk Metal
*Country: Greece (IMG:https://metalarea.org/forum/style_images/flags/Greece.png)
*Format: mp3@CBR192kbps
*Size: 19MB

Tracklist:
1. My Shadow in the Stars 05:33
2. Reaching the Coasts of Thule 05:45
******************************
Total playing time: 11:18

Technical info
(IMG:https://metalarea.org/images/spectrogram/2018_Jan/07b5bb0904247383466f596967b98877.png)
Input File: 1.My Shadow in the Stars.mp3
Channels : 2
Sample Rate : 44100
Precision : 16-bit
Duration : 00:05:25.24 = 14343128 samples = 24393.1 CDDA sectors
File Size : 9.11M
Bit Rate : 224k
Sample Encoding: MPEG audio (layer I, II or III)
Comments :
Title=Reaching the Coasts of Thule 2
Genre=12



Register


Go to the top of the page
  Insert nick Quick quote
+Quote Post

Reply to this topicStart new topic
1 User(s) are reading this topic (1 Guests and 0 Anonymous Users)
0 Members:

 



- Lo-Fi Version Support form
Copyrights and abuse reports form
Time is now: 17th August 2018 - 14:18:09