Welcome Guest ( Log In | Register )

> Night Threat - Negative Existence (2017), Thrash/Death Metal
post Jan 6 2018, 18:35:22
Post #1

Правь статус, ####!111
**************
Group: Металариец
Posts: 2,681
Releases: 1631
From: Greece
On Forums: 10 years 9 months
Thanks: 17125 time(s)
Greece


(IMG:https://metalarea.org/images/audiocovers/2018_Jan/acov_tid300172_thumb.jpg)

*Artist: Night Threat
*Album: Negative Existence
*Year: 2017
*Genre: Thrash/Death Metal
*Country: Greece (IMG:https://metalarea.org/forum/style_images/flags/Greece.png)
*Format: mp3@CBR192kbps
*Size: 49MB

Tracklist:
1.The Dusk 00:59
2.Of Life N Ruins 03:55
3.Near To Never 04:39
4.Threshold 02:37
5.-0 00:32
6.Negative Existence 04:25
7.Behind Closed Doors 03:33
8.Psychodrama 04:02
9.Complete 03:44
10.Dawn Of The End 01:53
******************************
Total playing time: 30:19

Technical info
(IMG:https://metalarea.org/images/spectrogram/2018_Jan/b3b46b1829354c17d53b749b80bd7b51.png)
Input File: 1.The Dusk.mp3
Channels : 2
Sample Rate : 44100
Precision : 16-bit
Duration : 00:00:59.22 = 2611646 samples = 4441.57 CDDA sectors
File Size : 1.66M
Bit Rate : 224k
Sample Encoding: MPEG audio (layer I, II or III)



Register


Вернуться к началу страницы
  Insert nick Quick quote
+Цитировать сообщение
 
Создать новую тему
Replies (1 - 1)
post Jan 6 2018, 19:35:38
Post #2

Morbid Angel
**************
Group: Металариец
Posts: 4,145
Releases: 0
From: Литва г.Клайпеда
On Forums: 11 years 2 months
Thanks: 1730 time(s)
Lithuania




Thanks:
(1) Diflock,
Вернуться к началу страницы
  Insert nick Quick quote
+Цитировать сообщение

ОтветитьСоздать новую тему
1 User(s) are reading this topic (1 Guests and 0 Anonymous Users)
0 Members:

 



- Lo-Fi Version Support form
Copyrights and abuse reports form
Time is now: 26th May 2018 - 14:52:03