Welcome Guest ( Log In | Register )

 
ОтветитьСоздать новую тему
> Interitus - In The Search Of The Dead God [demo] (1996), Doom/Death Metal (D)
post Jan 7 2018, 03:44:32
Post #1

Подвал
**************
Group: Металариец
Posts: 12,086
Releases: 6809
From: Far East (Khabarovsk)
On Forums: 9 years 3 months
Thanks: 62083 time(s)
Russian Federation


(IMG:https://metalarea.org/images/audiocovers/2018_Jan/acov_tid300188_thumb.jpg)

*Artist: Interitus
*Album: In The Search Of The Dead God [demo]
*Year: 1996
*Genre: Doom/Death Metal
*Country: Romania (IMG:https://metalarea.org/forum/style_images/flags/Romania.png)
*Format: mp3@CBR192kbps
*Size: 53MB

Tracklist:
1. Last Autumn Rain (Intro) / Empty Eyes 08:43
2. Forbidden Epitaph 04:20
3. The Human God 05:46
4. In Search Of Dead God 04:48
5. Heroes 04:20
6. Lonely White Idols 03:51
7. My Own Hell 04:27
******************************
Total playing time: 36:15

Extended info
pre-Interitus Dei.


Technical info
(IMG:https://metalarea.org/images/spectrogram/2018_Jan/716e05e43edc1d74c3138a4fc0e313a2.png)
Input File: 01-Last Autumn Rain (Intro) - Empty Eyes.mp3
Channels : 2
Sample Rate : 44100
Precision : 16-bit
Duration : 00:08:43.37 = 23080793 samples = 39253 CDDA sectors
File Size : 12.6M
Bit Rate : 192k
Sample Encoding: MPEG audio (layer I, II or III)
Comments :
Title=Last Autumn Rain (Intro) / Empty Eyes
Artist=Interitus (Rom)
Album=In The Search Of The Dead God (Demo)
Tracknumber=01
Year=1996
Genre=Death Metal



Register


Вернуться к началу страницы
  Insert nick Quick quote
+Цитировать сообщение

ОтветитьСоздать новую тему
2 User(s) are reading this topic (2 Guests and 0 Anonymous Users)
0 Members:

 



- Lo-Fi Version Support form
Copyrights and abuse reports form
Time is now: 20th May 2018 - 18:32:19