Welcome Guest ( Log In | Register )

 
ОтветитьСоздать новую тему
> Grimegod - Never Come Back [demo] (1994), Death/Doom Metal (D)
post Jan 7 2018, 03:51:48
Post #1

Подвал
**************
Group: Металариец
Posts: 11,779
Releases: 6654
From: Far East (Khabarovsk)
On Forums: 9 years 3 weeks
Thanks: 60322 time(s)
Russian Federation


(IMG:https://metalarea.org/images/audiocovers/2018_Jan/acov_tid300190_thumb.jpg)

*Artist: Grimegod
*Album: Never Come Back [demo]
*Year: 1994
*Genre: Death/Doom Metal
*Country: Romania (IMG:https://metalarea.org/forum/style_images/flags/Romania.png)
*Format: mp3@CBR192kbps
*Size: 28MB

Tracklist:
1. Tears In Paradise 05:37
2. Kill Me Again 05:21
3. Godless Cry 04:08
4. Silence 06:01
******************************
Total playing time: 21:07



Technical info
(IMG:https://metalarea.org/images/spectrogram/2018_Jan/c99ddab652ee9f5c8b9d739d4129f0a2.png)
Input File: 02-Kill Me Again.mp3
Channels : 2
Sample Rate : 44100
Precision : 16-bit
Duration : 00:05:21.62 = 14183354 samples = 24121.4 CDDA sectors
File Size : 7.72M
Bit Rate : 192k
Sample Encoding: MPEG audio (layer I, II or III)
Comments :
Title=Kill Me Again
Artist=Grimegod (Rom)
Album=Never Come Back (Demo)
Tracknumber=02
Year=1994
Genre=Death Metal



Register


Вернуться к началу страницы
  Insert nick Quick quote
+Цитировать сообщение

ОтветитьСоздать новую тему
1 User(s) are reading this topic (1 Guests and 0 Anonymous Users)
0 Members:

 



- Lo-Fi Version Support form
Copyrights and abuse reports form
Time is now: 21st February 2018 - 19:38:28