Welcome Guest ( Log In | Register )

 
Reply to this topicStart new topic
> Dies Irae - Dies Irae [demo] (1996), Death/Black Metal (D)
post Jan 7 2018, 04:10:16
Post #1

Подвал
**************
Group: Металариец
Posts: 12,698
Releases: 7116
From: Far East (Khabarovsk)
On Forums: 9 years 9 months
Thanks: 66160 time(s)
Russian Federation


(IMG:https://metalarea.org/images/audiocovers/2018_Jan/acov_tid300191_thumb.jpg)

*Artist: Dies Irae
*Album: Dies Irae [demo]
*Year: 1996
*Genre: Death/Black Metal
*Country: Romania (IMG:https://metalarea.org/forum/style_images/flags/Romania.png)
*Format: mp3@CBR192kbps
*Size: 27MB

Tracklist:
1. Into The Symbolic Dimension 05:38
2. Asper Animus 05:56
3. In Mourning For A Dream 05:18
4. Aeschatologic Time 03:02
******************************
Total playing time: 19:54

Extended info
Tracks 1 and 2 were recorded at Kerestely Studio, Bucharest, February 28, 1996.
Tracks 3 and 4 were recorded at Migas Real Compact Studio, May 20, 1996.


Technical info
(IMG:https://metalarea.org/images/spectrogram/2018_Jan/1e11f5900339d7863514debc0a38fb8f.png)
Input File: 01-Into the Symbolic Dimension.mp3
Channels : 2
Sample Rate : 44100
Precision : 16-bit
Duration : 00:05:38.34 = 14920706 samples = 25375.4 CDDA sectors
File Size : 8.12M
Bit Rate : 192k
Sample Encoding: MPEG audio (layer I, II or III)
Comments :
Title=Into the Symbolic Dimension
Artist=Dies Irae (Rom)
Album=Dies Irae (Demo)
Tracknumber=01
Year=1996
Genre=Death Metal



Register


Go to the top of the page
  Insert nick Quick quote
+Quote Post

Reply to this topicStart new topic
1 User(s) are reading this topic (1 Guests and 0 Anonymous Users)
0 Members:

 



- Lo-Fi Version Support form
Copyrights and abuse reports form
Time is now: 20th November 2018 - 16:35:53