Welcome Guest ( Log In | Register )

 
ОтветитьСоздать новую тему
> Face New World - Bleeding Wounds (2001), Death Metal
post Jan 7 2018, 04:27:07
Post #1

Подвал
**************
Group: Металариец
Posts: 12,086
Releases: 6809
From: Far East (Khabarovsk)
On Forums: 9 years 3 months
Thanks: 62142 time(s)
Russian Federation


(IMG:https://metalarea.org/images/audiocovers/2018_Jan/acov_tid300193.jpg)

*Artist: Face New World
*Album: Bleeding Wounds
*Year: 2001
*Genre: Death Metal
*Country: Germany (IMG:https://metalarea.org/forum/style_images/flags/Germany.png)
*Format: mp3@CBR192kbps
*Size: 53MB

Tracklist:
1. Where Is The Hardness 03:57
2. Bleeding Wounds 05:04
3. Wall Between Us 03:23
4. Umarmung Des Todes 04:02
5. Greed 03:51
6. Egoist 04:52
7. Just Believe 06:47
8. Schatten Im Licht 05:09
9/ Hidden Track 02:15
******************************
Total playing time: 39:20

Extended info
Played hardcore under the name Increase til 1999.


Technical info
(IMG:https://metalarea.org/images/spectrogram/2018_Jan/9ea08a47e8843d83f503cd960d80631b.png)
Input File: 01-Where Is the Hardness.mp3
Channels : 2
Sample Rate : 44100
Precision : 16-bit
Duration : 00:03:57.37 = 10467929 samples = 17802.6 CDDA sectors
File Size : 5.70M
Bit Rate : 192k
Sample Encoding: MPEG audio (layer I, II or III)
Comments :
Title=Where Is the Hardness
Artist=Face New World (Ger)
Album=Bleeding Wounds
Tracknumber=01
Year=2001
Genre=Death Metal



Register


Вернуться к началу страницы
  Insert nick Quick quote
+Цитировать сообщение

ОтветитьСоздать новую тему
2 User(s) are reading this topic (2 Guests and 0 Anonymous Users)
0 Members:

 



- Lo-Fi Version Support form
Copyrights and abuse reports form
Time is now: 22nd May 2018 - 20:31:09