Welcome Guest ( Log In | Register )

 
ОтветитьСоздать новую тему
> Dispersion - Tag Der Toten [ep] (2002), Death Metal
post Jan 7 2018, 04:49:18
Post #1

Подвал
**************
Group: Металариец
Posts: 12,095
Releases: 6813
From: Far East (Khabarovsk)
On Forums: 9 years 3 months
Thanks: 62197 time(s)
Russian Federation


(IMG:https://metalarea.org/images/audiocovers/2018_Jan/acov_tid300195.jpg)

*Artist: Dispersion
*Album: Tag Der Toten [ep]
*Year: 2002
*Genre: Death Metal
*Country: Germany (IMG:https://metalarea.org/forum/style_images/flags/Germany.png)
*Format: mp3@CBR192kbps
*Size: 26MB

Tracklist:
1. Das Höchste Gericht 02:44
2. Krieg 02:55
3. Tag Der Toten 02:41
4. Abendmahl 03:11
5. Fleischmaschine 03:01
6. Gedankenmassaker 02:50
7. HKMZUS 02:17
******************************
Total playing time: 19:39

Technical info
(IMG:https://metalarea.org/images/spectrogram/2018_Jan/0d58967f76a17c68c3389567a4d15525.png)
Input File: 01-Das Hochste Gericht.mp3
Channels : 2
Sample Rate : 44100
Precision : 16-bit
Duration : 00:02:44.98 = 7275530 samples = 12373.4 CDDA sectors
File Size : 3.96M
Bit Rate : 192k
Sample Encoding: MPEG audio (layer I, II or III)
Comments :
Title=Das Hochste Gericht
Artist=Dispersion (Ger)
Album=Tag der Toten (EP)
Tracknumber=01
Year=2002
Genre=Death Metal



Register


Вернуться к началу страницы
  Insert nick Quick quote
+Цитировать сообщение

ОтветитьСоздать новую тему
1 User(s) are reading this topic (1 Guests and 0 Anonymous Users)
0 Members:

 



- Lo-Fi Version Support form
Copyrights and abuse reports form
Time is now: 26th May 2018 - 05:24:25