Welcome Guest ( Log In | Register )

 
ОтветитьСоздать новую тему
> Disrepute - Deadly Prophecy [demo] (2003), Death Metal
post Jan 7 2018, 04:58:13
Post #1

Подвал
**************
Group: Металариец
Posts: 12,095
Releases: 6814
From: Far East (Khabarovsk)
On Forums: 9 years 3 months
Thanks: 62210 time(s)
Russian Federation


(IMG:https://metalarea.org/images/audiocovers/2018_Jan/acov_tid300196_thumb.jpg)

*Artist: Disrepute
*Album: Deadly Prophecy [demo]
*Year: 2003
*Genre: Death Metal
*Country: Germany (IMG:https://metalarea.org/forum/style_images/flags/Germany.png)
*Format: mp3@CBR192kbps
*Size: 21MB

Tracklist:
1. Hate Incarnate 03:41
2. Madness 02:04
3. Deadly Prophecy / Sick Destiny 10:10
******************************
Total playing time: 15:55



Technical info
(IMG:https://metalarea.org/images/spectrogram/2018_Jan/6fc640e50b351c906f58694393f07c15.png)
Input File: 01-Hate Incarnate.mp3
Channels : 2
Sample Rate : 44100
Precision : 16-bit
Duration : 00:03:41.41 = 9764005 samples = 16605.5 CDDA sectors
File Size : 5.31M
Bit Rate : 192k
Sample Encoding: MPEG audio (layer I, II or III)
Comments :
Title=Hate Incarnate
Artist=Disrepute (Ger)
Album=Deadly Prophecy (Demo)
Tracknumber=01
Year=2003
Genre=Death Metal



Register


Вернуться к началу страницы
  Insert nick Quick quote
+Цитировать сообщение

ОтветитьСоздать новую тему
1 User(s) are reading this topic (1 Guests and 0 Anonymous Users)
0 Members:

 



- Lo-Fi Version Support form
Copyrights and abuse reports form
Time is now: 26th May 2018 - 14:49:52