Welcome Guest ( Log In | Register )

 
Reply to this topicStart new topic
> Twilight - Sculpting Darkness [ep] (2015), Black Metal (D)
post Jan 7 2018, 11:59:15
Post #1

Правь статус, ####!111
**************
Group: Металариец
Posts: 2,681
Releases: 1631
From: Greece
On Forums: 11 years 2 weeks
Thanks: 17173 time(s)
Greece


(IMG:https://metalarea.org/images/audiocovers/2018_Jan/acov_tid300206_thumb.jpg)

*Artist: Twilight
*Album: Sculpting Darkness [ep]
*Year: 2015
*Genre: Black Metal
*Country: Greece (IMG:https://metalarea.org/forum/style_images/flags/Greece.png)
*Format: mp3@CBR224kbps
*Size: 15MB

Tracklist:
1. Metechmion 05:05
2. No Light Shall Blind Us 04:07
******************************
Total playing time: 9:12

Technical info
(IMG:https://metalarea.org/images/spectrogram/2018_Jan/f7a5b2d69587de8df5101f0d4db59a5a.png)
Input File: 1.Metechmion.mp3
Channels : 2
Sample Rate : 44100
Precision : 16-bit
Duration : 00:05:05.62 = 13477754 samples = 22921.4 CDDA sectors
File Size : 8.56M
Bit Rate : 224k
Sample Encoding: MPEG audio (layer I, II or III)



Register


Go to the top of the page
  Insert nick Quick quote
+Quote Post

Reply to this topicStart new topic
1 User(s) are reading this topic (1 Guests and 0 Anonymous Users)
0 Members:

 



- Lo-Fi Version Support form
Copyrights and abuse reports form
Time is now: 17th August 2018 - 14:17:21