Welcome Guest ( Log In | Register )

 
Reply to this topicStart new topic
> Respawn The Plague - Gathering Of The Unholy Ones [ep] (2013), Death Metal
post Jan 7 2018, 12:18:39
Post #1

Правь статус, ####!111
**************
Group: Металариец
Posts: 2,681
Releases: 1631
From: Greece
On Forums: 11 years 2 weeks
Thanks: 17173 time(s)
Greece


(IMG:https://metalarea.org/images/audiocovers/2018_Jan/acov_tid300210_thumb.jpg)

*Artist: Respawn The Plague
*Album: Gathering Of The Unholy Ones [ep]
*Year: 2013
*Genre: Death Metal
*Country: Greece (IMG:https://metalarea.org/forum/style_images/flags/Greece.png)
*Format: mp3@CBR320kbps
*Size: 19MB

Tracklist:
1. Drowned in Sin 04:18
2. Of Tongueless and Blind 03:56
******************************
Total playing time: 8:14

Technical info
(IMG:https://metalarea.org/images/spectrogram/2018_Jan/fff055be101bf28bbff8e3cdbcfc91d3.png)
Input File: 01 - Drowned in Sin.mp3
Channels : 2
Sample Rate : 48000
Precision : 16-bit
Duration : 00:04:18.94 = 12429072 samples ~ 19420.4 CDDA sectors
File Size : 10.5M
Bit Rate : 325k
Sample Encoding: MPEG audio (layer I, II or III)
Comments :
Artist=Respawn The Plague
Album=Gathering of the Unholy Ones (EP)
Year=2013
Genre=Death Metal



Register


Go to the top of the page
  Insert nick Quick quote
+Quote Post

Reply to this topicStart new topic
1 User(s) are reading this topic (1 Guests and 0 Anonymous Users)
0 Members:

 



- Lo-Fi Version Support form
Copyrights and abuse reports form
Time is now: 17th August 2018 - 14:17:39