Welcome Guest ( Log In | Register )

> И неформату есть предел.

Рэп/хип-хоп/шансон/поп удаляются. Для них есть свои порталы.

> Martyria - Martyria (2018), Ritual/Dark Ambient
post Jan 7 2018, 15:04:05
Post #1

Аннигилятор пивА
Group Icon
Group: V.I.P
Posts: 48,086
Releases: 14589
From: Koenigsberg - TILZIT
On Forums: 12 years 2 months
Thanks: 321139 time(s)
Russian Federation


(IMG:https://metalarea.org/images/audiocovers/2018_Jan/acov_tid300214_thumb.jpg)

*Artist: Martyria
*Album: Martyria
*Year: 2018
*Genre: Ritual/Dark Ambient
*Country: Greece (IMG:https://metalarea.org/forum/style_images/flags/Greece.png)
*Format: mp3@CBR320kbps
*Size: 90MB

Tracklist:
01. Logos 05:12
02. Pneuma 05:34
03. Nekros 08:35
04. Nyx 09:18
05. Eschaton 12:21
******************************
Total playing time: 41:00

Extended info
Hammerheart Records has a very long tradition in releasing Heathen ambient music (remember Hagalaz’Runedance) and when we heard the album by Martyria we decided to do a co-operation with the band and release this haunting recording on vinyl only. With its great textural depth, sepulchral atmospheres, and exotic, richly detailed ritualistic passages, the stunning, self-titled debut from the Greek male/female duo Martyria signifies the arrival of a vital new entry into the world of ritual/dark ambience.
For fans of Shibalba, Caul, Herbst9, Funerary Call, and Voice of Eye.




Technical info
(IMG:https://metalarea.org/images/spectrogram/2018_Jan/b7d32b954d9740b3ddeaeba0bfa08ba7.png)
Input File: 01-martyria-logos-5df7fc57.mp3
Channels : 2
Sample Rate : 44100
Precision : 16-bit
Duration : 00:05:11.75 = 13748219 samples = 23381.3 CDDA sectors
File Size : 12.5M
Bit Rate : 320k
Sample Encoding: MPEG audio (layer I, II or III)
Comments :
Title=Logos
Artist=Martyria
Album=Martyria
Tracknumber=1/5
Year=2018
Genre=9



Register


Go to the top of the page
  Insert nick Quick quote
+Quote Post
 
Start new topic
Replies (1 - 1)
post Jan 8 2018, 19:12:04
Post #2

As Above, so Below
***********
Group: Металариец
Posts: 1,862
Releases: 17
On Forums: 8 years 8 months
Thanks: 3682 time(s)
Russian Federation




Опосля первого прослушивания показалось замечательным релизом. Будем вникать далее.


Thanks:
(1) abob,
Go to the top of the page
  Insert nick Quick quote
+Quote Post

Reply to this topicStart new topic
1 User(s) are reading this topic (1 Guests and 0 Anonymous Users)
0 Members:

 



- Lo-Fi Version Support form
Copyrights and abuse reports form
Time is now: 19th August 2018 - 08:58:54