Welcome Guest ( Log In | Register )

> И неформату есть предел.

Рэп/хип-хоп/шансон/поп удаляются. Для них есть свои порталы.

 
ОтветитьСоздать новую тему
> Various Artists - Sonic Seducer: Cold Hands Seduction 194 [best of/compilation] (2018), Various Gothic
post Jan 7 2018, 15:16:25
Post #1

Мегаманьяк
***********
Group: Металариец
Posts: 1,671
Releases: 463
On Forums: 10 years 3 weeks
Thanks: 6338 time(s)
Ireland


(IMG:https://metalarea.org/images/audiocovers/2018_Jan/acov_tid300215_thumb.jpg)

*Artist: Various Artists
*Album: Sonic Seducer: Cold Hands Seduction 194 [best of/compilation]
*Year: 2018
*Genre: Various Gothic
*Country: Many (IMG:https://metalarea.org/forum/style_images/flags/Many.png)
*Format: mp3@CBR320kbps
*Size: 143MB

Tracklist:
01. The Crüxshadows - Jupiter
02. Unzucht - Neuntöter
03. Covenant - The Men
04. Blutengel - Leitbild
05. Megaherz - Für immer
06. Subway to Sally - Für immer
07. White Lies - Big TV
08. Deutsch Amerikanische Freundschaft - Alle gegen alle
09. Solar Fake - Under Control
10. Tyske Ludder - Panzer
11. Absurd Minds - Kreuzfeuer
12. The Arch - Ribdancer
******************************
Total playing time: 1:02:55

Extended info
DVD audio
All tracks live at M'Era Luna festival 2017


Technical info
(IMG:https://metalarea.org/images/spectrogram/2018_Jan/340abedb18f516786bf6dea9efb1e7b8.png)
Input File: 01 Jupiter.mp3
Channels : 2
Sample Rate : 44100
Precision : 16-bit
Duration : 00:04:59.11 = 13190619 samples = 22433 CDDA sectors
File Size : 12.1M
Bit Rate : 323k
Sample Encoding: MPEG audio (layer I, II or III)
Comments :
Title=Jupiter
Artist=The CrГјxshadows
Album=Cold Hands Seduction Vol. 194
Tracknumber=01
Year=2017
Genre=EBM/Gothic Rock/Darkwave



Register


Вернуться к началу страницы
  Insert nick Quick quote
+Цитировать сообщение

ОтветитьСоздать новую тему
2 User(s) are reading this topic (2 Guests and 0 Anonymous Users)
0 Members:

 



- Lo-Fi Version Support form
Copyrights and abuse reports form
Time is now: 20th May 2018 - 18:22:08