Welcome Guest ( Log In | Register )

> И неформату есть предел.

Рэп/хип-хоп/шансон/поп удаляются. Для них есть свои порталы.

 
Reply to this topicStart new topic
> Lunarsapian - The Pestilence That Was Promised [ep] (2017), Drone/Dark Ambient/Noise (D5)
post Jan 7 2018, 17:13:57
Post #1

Маньяк
**********
Group: Металариец
Posts: 1,342
Releases: 1133
From: Одесса
On Forums: 10 years 2 months
Thanks: 8788 time(s)
Ukraine


(IMG:http://metalarea.org/images/audiocovers/2018_Jan/acov_tid300222_thumb.png)

*Artist: Lunarsapian
*Album: The Pestilence That Was Promised [ep]
*Year: 2017
*Genre: Drone/Dark Ambient/Noise
*Country: United Kingdom (IMG:https://metalarea.org/forum/style_images/flags/United%20Kingdom.png) | United States (IMG:https://metalarea.org/forum/style_images/flags/United%20States.png)
*Format: mp3@CBR320kbps
*Size: 59MB

Tracklist:
1. Beckoning the Words of the Clandestine Deity 02:32 instrumental
2. Just Another Painful Memory. . . . 05:25
3. Equanimity 08:01
4. Without Hope 08:33
******************************
Total playing time: 24:31



Extended info
Line - up:

Scott K. - Drums, Vocals (backing) Arkhitekt, Desolation, Lykankult, Valkynaz)
Lord Blackthorn - Vocals, Guitars, Keyboards, Samples (Beyond the Dark Forest, Lykankult, ex-Angelfuck)

(IMG:https://www.metal-archives.com/images/3/5/4/0/3540283841_photo.jpg)


Technical info
(IMG:http://metalarea.org/images/spectrogram/2018_Jan/41231e71ac802931e2762c53e12bb090.png)
Input File: 01. Beckoning the Words of the Clandestine Deity.mp3
Channels : 2
Sample Rate : 48000
Precision : 16-bit
Duration : 00:02:32.79 = 7333776 samples ~ 11459 CDDA sectors
File Size : 6.12M
Bit Rate : 320k
Sample Encoding: MPEG audio (layer I, II or III)
Comments :
Title=Beckoning the Words of the Clandestine Deity
Artist=Lunarsapian
Album=The Pestilence that was Promised (EP)
Tracknumber=1
Year=2017
Genre=Drone / Dark Ambient / Noise



Register


Go to the top of the page
  Insert nick Quick quote
+Quote Post

Reply to this topicStart new topic
1 User(s) are reading this topic (1 Guests and 0 Anonymous Users)
0 Members:

 



- Lo-Fi Version Support form
Copyrights and abuse reports form
Time is now: 19th August 2018 - 08:59:39