Welcome Guest ( Log In | Register )

> Malodorous Oblation - Sanctorum Sanguines (2017), Brutal Death Metal
post Jan 9 2018, 18:17:57
Post #1

Восемь Литров
********
Group: Металариец
Posts: 870
Releases: 704
From: Одесса
On Forums: 9 years 8 months
Thanks: 5607 time(s)
Ukraine


(IMG:http://metalarea.org/images/audiocovers/2018_Jan/acov_tid300305_thumb.jpg)

*Artist: Malodorous Oblation
*Album: Sanctorum Sanguines
*Year: 2017
*Genre: Brutal Death Metal
*Country: Unknown (IMG:http://metalarea.org/forum/style_images/flags/Unknown.png)
*Format: mp3@CBR128kbps (IMG:http://metalarea.org/images/bit_low.gif)
*Size: 27MB

Tracklist:
1. Esoteric Ascesis 03:34
2. Entangled in Concupiscence 02:52
3. The Primordial Architect 03:32
4. Inherited Sacrosanct Savagery 02:44
5. Rites of Affliction 03:21
6. Consecrated Tribulations 02:30
7. Solemn Effigies of Infidelity 03:44
8. Unutterable Perdition 02:35
9. Breaching the Phantasmagoria 02:58
******************************
Total playing time: 27:50



Extended info
Line - up:

N - Guitars, Bass
U - Vocals, Drums
Jon - Guitars (Ovaryrot)


Technical info
(IMG:http://metalarea.org/images/spectrogram/2018_Jan/3b5b7bc5624e45de1f8009483d1a679a.png)
Input File: 09. Breaching the Phantasmagoria.mp3
Channels : 2
Sample Rate : 44100
Precision : 16-bit
Duration : 00:02:58.36 = 7865720 samples = 13377.1 CDDA sectors
File Size : 2.86M
Bit Rate : 128k
Sample Encoding: MPEG audio (layer I, II or III)
Comments :
Title=Breaching the Phantasmagoria
Artist=Malodorous Oblation
Album=Sanctorum Sanguines
Tracknumber=09
Year=2017
Genre=Brutal Death Metal



Register


Вернуться к началу страницы
  Insert nick Quick quote
+Цитировать сообщение
 
Создать новую тему
Replies (1 - 1)
post Jan 9 2018, 22:44:01
Post #2

Crush The Enemies
**************
Group: Металариец
Posts: 4,025
Releases: 0
From: Moscow
On Forums: 8 years 5 months
Thanks: 1903 time(s)
Russian Federation



International brutal death metal band from USA/Sweden

Jonathan Paxton - Guitars/Bass
Ulf Nylin - Vocals/Drums


Thanks:
(1) MMMMM,
Вернуться к началу страницы
  Insert nick Quick quote
+Цитировать сообщение

ОтветитьСоздать новую тему
1 User(s) are reading this topic (1 Guests and 0 Anonymous Users)
0 Members:

 



- Lo-Fi Version Support form
Copyrights and abuse reports form
Time is now: 19th February 2018 - 08:40:33