Welcome Guest ( Log In | Register )

> Правила / Rules

Тут только для чтения лежат низкобитрейтные (<192kbps) релизы, для которых есть аналоги в высокобитрейтных форумах.

Here goes (and stand in read only mode) low bitrate releases (<192kbps) which were already replaced by high bitrate releases in corresponding forums.

Причина закрытия (Хогги 13-01-2018):
 
Closed TopicStart new topic
> Tartarum - Tales Of Ancient Times (2018), Symphonic/Melodic Death Metal
post Jan 9 2018, 21:27:20
Post #1

Восемь Литров
********
Group: Металариец
Posts: 855
Releases: 718
From: Новороссийск
On Forums: 7 years 6 months
Thanks: 12202 time(s)
Russian Federation


(IMG:https://metalarea.org/images/audiocovers/2018_Jan/acov_tid300310_thumb.jpg)

*Artist: Tartarum
*Album: Tales Of Ancient Times
*Year: 2018
*Genre: Symphonic/Melodic Death Metal
*Country: Cyprus (IMG:https://metalarea.org/forum/style_images/flags/Cyprus.png)
*Format: mp3@CBR128kbps (IMG:https://metalarea.org/images/bit_low.gif)
*Size: 38MB

Tracklist:
01. Ascend From The Void 01:46
02. Beowulf 05:48
03. Land Of The Dead 04:43
04. Titanomachy 04:26
05. Cosmology 05:33
06. Capturing The Universe 06:18
07. Kuchisake Onna 06:08
08. Feasting With The Gods 06:40
******************************
Total playing time: 41:22




Extended info


Technical info
(IMG:https://metalarea.org/images/spectrogram/2018_Jan/443e2d924bf205f82f11f52a827b0835.png)
Input File: 02. Beowulf.mp3
Channels : 2
Sample Rate : 44100
Precision : 16-bit
Duration : 00:05:48.30 = 15360030 samples = 26122.5 CDDA sectors
File Size : 5.57M
Bit Rate : 128k
Sample Encoding: MPEG audio (layer I, II or III)
Comments :
Title=Beowulf
Artist=Tartarum
Album=Tales Of Ancient Times
Tracknumber=02
Year=2018
Genre=Death Metal



Register


Thanks:
Go to the top of the page
  Insert nick Quick quote
+Quote Post

Причина закрытия (Хогги 13-01-2018):
Closed TopicStart new topic
1 User(s) are reading this topic (1 Guests and 0 Anonymous Users)
0 Members:

 



- Lo-Fi Version Support form
Copyrights and abuse reports form
Time is now: 21st November 2018 - 19:57:57