Welcome Guest ( Log In | Register )

 
Reply to this topicStart new topic
> Valhöll​-​Dûm - Under The Black Sun (2018), Black/Pagan Metal
post Jan 10 2018, 01:30:29
Post #1

Восемь Литров
********
Group: Металариец
Posts: 855
Releases: 718
From: Новороссийск
On Forums: 7 years 6 months
Thanks: 12193 time(s)
Russian Federation


(IMG:https://metalarea.org/images/audiocovers/2018_Jan/acov_tid300316_thumb.jpg)

*Artist: Valhöll​-​Dûm
*Album: Under The Black Sun
*Year: 2018
*Genre: Black/Pagan Metal
*Country: Spain (IMG:https://metalarea.org/forum/style_images/flags/Spain.png)
*Format: mp3@CBR128kbps (IMG:https://metalarea.org/images/bit_low.gif)
*Size: 40MB

Tracklist:
01. Intro 01:16
02. Northerm Gates 03:30
03. Tears Of Blood 05:47
04. La Muerte De Balder 04:43
05. Prelude 03:45
06. Ragnarok 04:43
07. Vale Noctis 06:05
08. Under The Black Sun 05:40
09. Berseker 03:04
10. My Song Of Hate For You 05:23
******************************
Total playing time: 44:00




Technical info
(IMG:https://metalarea.org/images/spectrogram/2018_Jan/b407022787ad14e72a25c813673286e2.png)
Input File: 02. Northerm Gates.mp3
Channels : 2
Sample Rate : 44100
Precision : 16-bit
Duration : 00:03:30.53 = 9284373 samples = 15789.8 CDDA sectors
File Size : 3.37M
Bit Rate : 128k
Sample Encoding: MPEG audio (layer I, II or III)
Comments :
Title=Northerm Gates
Artist=Valhöll​-​Dûm
Album=Under The Black Sun
Tracknumber=02
Year=2018
Genre=Black Metal



Register


Go to the top of the page
  Insert nick Quick quote
+Quote Post

Reply to this topicStart new topic
1 User(s) are reading this topic (1 Guests and 0 Anonymous Users)
0 Members:

 



- Lo-Fi Version Support form
Copyrights and abuse reports form
Time is now: 20th November 2018 - 16:21:39