Welcome Guest ( Log In | Register )

> И неформату есть предел.

Рэп/хип-хоп/шансон/поп удаляются. Для них есть свои порталы.

> Year Of The Goat - Song Of Winter [ep] (2016), Occult Rock (D5)
post Jan 10 2018, 07:55:43
Post #1

Девять Литров
*********
Group: Металариец
Posts: 907
Releases: 357
From: north korea
On Forums: 7 years 3 months
Thanks: 7578 time(s)
Italy


(IMG:http://metalarea.org/images/audiocovers/2018_Jan/acov_tid300319_thumb.jpg)

*Artist: Year Of The Goat
*Album: Song Of Winter [ep]
*Year: 2016
*Genre: Occult Rock
*Country: Sweden (IMG:http://metalarea.org/forum/style_images/flags/Sweden.png)
*Format: mp3@CBR320kbps
*Size: 16MB

Tracklist:
1. Song Of Winter 03:07
2. Strange Shadows 04:04
******************************
Total playing time: 7:11

Technical info
(IMG:http://metalarea.org/images/spectrogram/2018_Jan/441660c0a4f06e70b368cb0a869eb062.png)
Input File: 1. Song of winter cut - - Senza Titolo1.mp3
Channels : 2
Sample Rate : 44100
Precision : 16-bit
Duration : 00:01:02.04 = 2735964 samples = 4653 CDDA sectors
File Size : 2.48M
Bit Rate : 320k
Sample Encoding: MPEG audio (layer I, II or III)



Register


Вернуться к началу страницы
  Insert nick Quick quote
+Цитировать сообщение
 
Создать новую тему
Replies (1 - 3)
post Jan 10 2018, 11:39:38
Post #2

Девять Литров
*********
Group: Металариец
Posts: 907
Releases: 357
From: north korea
On Forums: 7 years 3 months
Thanks: 7578 time(s)
Italy


Mirror
Register


Вернуться к началу страницы
  Insert nick Quick quote
+Цитировать сообщение
post Jan 10 2018, 15:45:11
Post #3

Detective Godzilla
**************
Group: Металариец
Posts: 2,234
Releases: 141
On Forums: 7 years 1 week
Thanks: 3653 time(s)
Russian Federation


Отлично, надо будет в ближайшие дни послушать
Вернуться к началу страницы
  Insert nick Quick quote
+Цитировать сообщение
post Jan 10 2018, 18:40:12
Post #4

Маньяк
**********
Group: Металариец
Posts: 1,442
Releases: 23
From: Spain
On Forums: 10 years 5 months
Thanks: 1093 time(s)
Spain


youtube
Вернуться к началу страницы
  Insert nick Quick quote
+Цитировать сообщение

ОтветитьСоздать новую тему
1 User(s) are reading this topic (1 Guests and 0 Anonymous Users)
0 Members:

 



- Lo-Fi Version Support form
Copyrights and abuse reports form
Time is now: 19th February 2018 - 08:54:01