Welcome Guest ( Log In | Register )

> Sabbat & Metalucifer - The Asian Tyrantz/We’re Still Metal Kids [split] (2017), Black/Thrash Metal | Heavy/Speed Metal
post Jan 10 2018, 17:18:03
Post #1

Девять Литров
*********
Group: Металариец
Posts: 976
Releases: 370
On Forums: 7 years 6 months
Thanks: 7987 time(s)
North Korea


(IMG:http://metalarea.org/images/audiocovers/2018_Jan/acov_tid300344_thumb.jpg)

*Artist: Sabbat & Metalucifer
*Album: The Asian Tyrantz/We’re Still Metal Kids [split]
*Year: 2017
*Genre: Black/Thrash Metal | Heavy/Speed Metal
*Country: Japan (IMG:http://metalarea.org/forum/style_images/flags/Japan.png) | Japan (IMG:http://metalarea.org/forum/style_images/flags/Japan.png)
*Format: mp3@CBR320kbps
*Size: 25MB

Tracklist:
Sabbat:
1.The Asyan Tyrant 05:35
Metalucifer:
2.We're still metal kids 05:26
******************************
Total playing time: 11:01

Preview 1

Extended info
Iron Pegasus Records
Format:7" vinyl (45 RPM)


Technical info
(IMG:http://metalarea.org/images/spectrogram/2018_Jan/d5646e09385d9bd19cea7a96b09be350.png)
Input File: 1. The asian tyrants cut Sabbat.mp3
Channels : 2
Sample Rate : 44100
Precision : 16-bit
Duration : 00:01:30.04 = 3970896 samples = 6753.22 CDDA sectors
File Size : 3.60M
Bit Rate : 320k
Sample Encoding: MPEG audio (layer I, II or III)



Register


Вернуться к началу страницы
  Insert nick Quick quote
+Цитировать сообщение
 
Создать новую тему
Replies (1 - 1)
post Jan 12 2018, 22:10:46
Post #2

Group: Подсевший
Posts: 22
Releases: 0
On Forums: 7 years 9 months
Thanks: 3 time(s)
Ukraine


Интересно есть ли хоть один человек на планете Замля, кто прослушал все 147 лайвов, 352 однопесенных сплита, 456 компилях группы Сабат? Банда заслуживает уважения, но утомляет бесчисленными релизами.
Вернуться к началу страницы
  Insert nick Quick quote
+Цитировать сообщение

ОтветитьСоздать новую тему
2 User(s) are reading this topic (2 Guests and 0 Anonymous Users)
0 Members:

 



- Lo-Fi Version Support form
Copyrights and abuse reports form
Time is now: 24th May 2018 - 14:37:19