Welcome Guest ( Log In | Register )

> Headbanger - First To Fight (2017), Heavy Metal (D4)
post Jan 10 2018, 21:08:54
Post #1

MDM-Thrash Metal
**************
Group: Металариец
Posts: 6,673
Releases: 410
From: Одесса
On Forums: 10 years 9 months
Thanks: 12734 time(s)
Ukraine


(IMG:http://metalarea.org/images/audiocovers/2018_Jan/acov_tid300353_thumb.jpg)

*Artist: Headbanger
*Album: First To Fight
*Year: 2017
*Genre: Heavy Metal
*Country: Poland (IMG:http://metalarea.org/forum/style_images/flags/Poland.png)
*Format: mp3@CBR320kbps
*Size: 78MB

Tracklist:
1. First to Fight 04:06
2. All We Want 03:35
3. Barracuda 03:28
4. Into the Fire 03:03
5. Livin' in Hell 04:30
6. Voices Within 04:28
7. Keep on Walkin' 03:55
8. Day of the Rope 04:03
9. Ready to Strike 03:03
******************************
Total playing time: 34:11




Technical info
(IMG:http://metalarea.org/images/spectrogram/2018_Jan/c498ada91ac3c96f9dadceb57a2215d2.png)
Input File: 02. All We Want.mp3
Channels : 2
Sample Rate : 44100
Precision : 16-bit
Duration : 00:03:35.32 = 9495568 samples = 16148.9 CDDA sectors
File Size : 8.61M
Bit Rate : 320k
Sample Encoding: MPEG audio (layer I, II or III)
Comments :
Title=All We Want
Artist=Headbanger
Album=First to Fight
Tracknumber=2
Year=2017



Register


Вернуться к началу страницы
  Insert nick Quick quote
+Цитировать сообщение
 
Создать новую тему
Replies (1 - 4)
post Jan 11 2018, 11:06:59
Post #2

Наливай!
**************
Group: Металариец
Posts: 4,975
Releases: 27
From: Москва-Бибирево
On Forums: 10 years 2 months
Thanks: 2297 time(s)
Russian Federation




Thanks:
(1) Asketto,
Вернуться к началу страницы
  Insert nick Quick quote
+Цитировать сообщение
post Jan 11 2018, 11:10:50
Post #3

Правь статус, ####!111
**************
Group: Металариец
Posts: 30,909
Releases: 477
On Forums: 8 years 11 months
Thanks: 23880 time(s)
Russian Federation


Попку могли бы и посочнее отрисовать, помясистее, а вот по музлу неплохо так.


Thanks:
(1) signoff,
Вернуться к началу страницы
  Insert nick Quick quote
+Цитировать сообщение
post Jan 11 2018, 16:49:55
Post #4

Девять Литров
*********
Group: Металариец
Posts: 990
Releases: 0
From: Dnipro
On Forums: 9 years 10 months
Thanks: 253 time(s)
Ukraine


Хардом и глэмом отдает.
Вернуться к началу страницы
  Insert nick Quick quote
+Цитировать сообщение
post Jan 12 2018, 21:53:38
Post #5

Group: Подсевший
Posts: 22
Releases: 0
On Forums: 7 years 9 months
Thanks: 3 time(s)
Ukraine


А че, зачетное дерьмо. Весьма задорно.
Вернуться к началу страницы
  Insert nick Quick quote
+Цитировать сообщение

ОтветитьСоздать новую тему
2 User(s) are reading this topic (2 Guests and 0 Anonymous Users)
0 Members:

 



- Lo-Fi Version Support form
Copyrights and abuse reports form
Time is now: 24th May 2018 - 14:36:42