Welcome Guest ( Log In | Register )

> Chertopolokh - I (2017), Psychodelic Post/Doom Metal (D4)
post Jan 10 2018, 22:02:01
Post #1

Время Мары
**************
Group: Металариец
Posts: 3,064
Releases: 398
From: Харьков
On Forums: 10 years 3 months
Thanks: 7837 time(s)
Ukraine


(IMG:http://metalarea.org/images/audiocovers/2018_Jan/acov_tid300355_thumb.jpg)

*Artist: Chertopolokh
*Album: I
*Year: 2017
*Genre: Psychodelic Post/Doom Metal
*Country: Russian Federation (IMG:http://metalarea.org/forum/style_images/flags/Russian%20Federation.png)
*Format: mp3@CBR320kbps
*Size: 97MB

Tracklist:
1. В Объятиях Тумана
2. Навстречу Студеным Ветрам
3. В Одиноко Плывущей Лодке
4. На Ладонях Холодных Волн
5. Под Кружевом Осенних Созвездий
6. Незримые Мёртвым
******************************
Total playing time: 42:09

Technical info
(IMG:http://metalarea.org/images/spectrogram/2018_Jan/2d907b71403ffccdedb76fb7310082be.png)
Input File: 06 Незримые Мёртвым.mp3
Channels : 2
Sample Rate : 44100
Precision : 16-bit
Duration : 00:07:28.15 = 19763239 samples = 33611 CDDA sectors
File Size : 18.2M
Bit Rate : 324k
Sample Encoding: MPEG audio (layer I, II or III)
Comments :
Title=Íåçðèìûå ̸ðòâûì
Artist=Chertopolokh
Album=I
Tracknumber=6
Year=2017



Register


Go to the top of the page
  Insert nick Quick quote
+Quote Post
 
Start new topic
Replies (1 - 4)
post Jan 11 2018, 09:46:21
Post #2

Аннигилятор пивА
Group Icon
Group: V.I.P
Posts: 52,358
Releases: 16557
From: Koenigsberg - TILZIT
On Forums: 13 years 3 months
Thanks: 362214 time(s)
Russian Federation


Psychodelic Post ???
Go to the top of the page
  Insert nick Quick quote
+Quote Post
post Jan 11 2018, 10:11:25
Post #3

ы.
**************
Group: Металариец
Posts: 2,976
Releases: 0
On Forums: 3 years 7 months
Thanks: 1797 time(s)
Unknown


ЦИТАТА(aesteticvice @ 11th January 2018 - 13:46:21) *
Psychodelic Post ???

Ничего боженька в это время употреблять не разрешает, окромя веществ.
Дабы лично заключить в обьятия каждого истинного христианина, к нему в святые высоты взошедшаго


Go to the top of the page
  Insert nick Quick quote
+Quote Post
post Jan 11 2018, 11:22:23
Post #4

ME[ta]LLOMAN
**************
Group: Металариец
Posts: 4,916
Releases: 3
From: Avdeyevka
On Forums: 13 years 5 months
Thanks: 1859 time(s)
Honduras



ннеплоххо (IMG:style_emoticons/default/headcrab.png)


Thanks:
(1) artscald,
Go to the top of the page
  Insert nick Quick quote
+Quote Post
post Jan 23 2018, 09:02:48
Post #5

Кожаный ублюдок
**************
Group: Металариец
Posts: 3,081
Releases: 6
From: Алчевск (early) Некросибирск (now)
On Forums: 10 years 4 months
Thanks: 1840 time(s)
Russian Federation


Немного как-то я упустил из внимания, что у команды Chertopolokh, выпустившей прекрасный миник «Час полночи» в сентябре, прям что называется в конце уже 2017-го года, а именно 31-го декабря, обозначился наконец и полноформат. Парни эти стали конечно не самым значимым открытием для меня в ушедшем году, но одним из знаковых это точно, уж слишком интересный материал они представили на EP.
Но что же альбом? А альбом получился несколько другим, ибо довольно много хронометража уделено отрешенному эмбиенту, что может и прибавляет материалу атмосферности, но не более, чем оной было на 20-ти минутной ипишке. А ведь на «I» времени почти в два раза больше. Пост-метал утратил думовые оттенки и стал скорее пост-роком, с некими утяжелениями в сторону пост-блэка. Психоделии здесь нет, увы. Ну и все так же инструментал, в этот раз без вокала вообще. Пожалуй, на этом можно и остановится.
И что же получилось в итоге? Получилось хорошо, но то, что было раньше мне нравилось больше. Нынешний материал, несомненно, свою аудиторию найдет и я не считаю опус сей хуже, он просто другой и цепляет не так. (IMG:style_emoticons/default/9.gif) (IMG:style_emoticons/default/9.gif) (IMG:style_emoticons/default/9.gif)
Go to the top of the page
  Insert nick Quick quote
+Quote Post

Reply to this topicStart new topic
2 User(s) are reading this topic (2 Guests and 0 Anonymous Users)
0 Members:

 



- Lo-Fi Version Support form
Copyrights and abuse reports form
Time is now: 15th September 2019 - 23:22:26