Welcome Guest ( Log In | Register )

> И неформату есть предел.

Рэп/хип-хоп/шансон/поп удаляются. Для них есть свои порталы.

 
ОтветитьСоздать новую тему
> Taste - We Are Back (2018), Melodic Hard Rock
post Jan 11 2018, 08:41:48
Post #1

Правь статус, ####!111
**************
Group: Металариец
Posts: 6,014
Releases: 5544
From: Lithuania
On Forums: 11 years 4 months
Thanks: 39903 time(s)
Lithuania


(IMG:https://metalarea.org/images/audiocovers/2018_Jan/acov_tid300366_thumb.jpg)

*Artist: Taste
*Album: We Are Back
*Year: 2018
*Genre: Melodic Hard Rock
*Country: Sweden (IMG:https://metalarea.org/forum/style_images/flags/Sweden.png)
*Format: mp3@CBR320kbps
*Size: 105MB

Tracklist:
1. We Are Back
2. Back To The Future
3. Our Dreams
4. Cry For Love
5. Dont Give Up
6. Stay
7. My Rose
8. Danger Games
9. Doesn't Feel Like Love
10. In My Arms (Tonight)
11. The One
12. Fallen Angel
******************************
Total playing time: 45:47

(IMG:https://metalarea.org/images/youtube.png)
(IMG:https://metalarea.org/images/youtube.png)

Technical info
(IMG:https://metalarea.org/images/spectrogram/2018_Jan/2e270659f0a99fe0f5765c2aa4499366.png)
Input File: Taste - 02 - Back To The Future.mp3
Channels : 2
Sample Rate : 44100
Precision : 16-bit
Duration : 00:00:59.75 = 2634975 samples = 4481.25 CDDA sectors
File Size : 2.48M
Bit Rate : 332k
Sample Encoding: MPEG audio (layer I, II or III)
Comments :
Title=Back To The Future
Artist=Taste
Album=We Are Back
Tracknumber=02
Year=2018
Genre=17



Register


Вернуться к началу страницы
  Insert nick Quick quote
+Цитировать сообщение

ОтветитьСоздать новую тему
1 User(s) are reading this topic (1 Guests and 0 Anonymous Users)
0 Members:

 



- Lo-Fi Version Support form
Copyrights and abuse reports form
Time is now: 19th February 2018 - 15:03:33