Welcome Guest ( Log In | Register )

 
ОтветитьСоздать новую тему
> Pororoca - Pevnost (2017), Heavy/Thrash Metal
post Jan 11 2018, 08:47:05
Post #1

Правь статус, ####!111
**************
Group: Металариец
Posts: 6,014
Releases: 5544
From: Lithuania
On Forums: 11 years 4 months
Thanks: 39903 time(s)
Lithuania


(IMG:https://metalarea.org/images/audiocovers/2018_Jan/acov_tid300367_thumb.jpg)

*Artist: Pororoca
*Album: Pevnost
*Year: 2017
*Genre: Heavy/Thrash Metal
*Country: Czech Republic (IMG:https://metalarea.org/forum/style_images/flags/Czech%20Republic.png)
*Format: mp3@VBR178kbps (IMG:https://metalarea.org/images/bit_low.gif)
*Size: 55MB

Tracklist:
1. Svět strojů 04:46
2. Sráč 04:53
3. Pevnost 04:24
4. Pojď se rvát 05:16
5. Černá noc 04:10
6. Ohnivá pomsta 03:37
7. Teror 04:17
8. Nebezpečná hra 06:03
9. Mrcha 05:01
******************************
Total playing time: 42:27

Bandzone


Technical info
(IMG:https://metalarea.org/images/spectrogram/2018_Jan/18f99fc27fab6fce583fdd11f90395b9.png)
Input File: 02 POROROCA - Srac.mp3
Channels : 2
Sample Rate : 44100
Precision : 16-bit
Duration : 00:04:53.04 = 12923108 samples = 21978.1 CDDA sectors
File Size : 6.66M
Bit Rate : 182k
Sample Encoding: MPEG audio (layer I, II or III)
Comments :
Title=Srac
Artist=Pororoca
Album=Pevnost
Tracknumber=02
Year=2017
Genre=Heavy Metal



Register


Вернуться к началу страницы
  Insert nick Quick quote
+Цитировать сообщение

ОтветитьСоздать новую тему
1 User(s) are reading this topic (1 Guests and 0 Anonymous Users)
0 Members:

 



- Lo-Fi Version Support form
Copyrights and abuse reports form
Time is now: 20th February 2018 - 07:00:15