Welcome Guest ( Log In | Register )

> Šmiercieslaŭ - Biessmjarotny Czorny Mietal [demo] (2000), Black/Thrash Metal (D4)
post Jan 11 2018, 09:05:17
Post #1

...
Group Icon
Group: S-moderation team
Posts: 6,177
Releases: 1276
On Forums: 7 years 2 months
Thanks: 31236 time(s)
Unknown


(IMG:http://metalarea.org/images/audiocovers/2018_Jan/acov_tid300370_thumb.jpg)

*Artist: Šmiercieslaŭ
*Album: Biessmjarotny Czorny Mietal [demo]
*Year: 2000
*Genre: Black/Thrash Metal
*Country: Belarus (IMG:http://metalarea.org/forum/style_images/flags/Belarus.png)
*Format: mp3@CBR320kbps
*Size: 49MB

Tracklist:
1. Prakljaccie nierusza 06:50
2. Czorny Niergal 04:05
3. Vir adczaju 04:35
4. Biessmjarotny czorny mietal 05:53
******************************
Total playing time: 21:23

Extended info
Possession Productions cassette limited to 500 copies. Tape rip + Scans.


Technical info
(IMG:http://metalarea.org/images/spectrogram/2018_Jan/ebf6cba7b0cd1d6b622efe7768ba3753.png)
Input File: 01 Prakljaccie nierusza.mp3
Channels : 2
Sample Rate : 44100
Precision : 16-bit
Duration : 00:06:51.04 = 18126644 samples = 30827.6 CDDA sectors
File Size : 16.4M
Bit Rate : 320k
Sample Encoding: MPEG audio (layer I, II or III)
Comments :
Title=Prakljaccie nierusza
Artist=Е miercieslaЕ­
Album=Biessmjarotny czorny mietal
Tracknumber=1
Year=2000
Genre=Black Metal



Register


Вернуться к началу страницы
  Insert nick Quick quote
+Цитировать сообщение
 
Создать новую тему
Replies (1 - 2)
post Jan 11 2018, 10:03:01
Post #2

Три Литра
***
Group: Завсегдатай
Posts: 280
Releases: 5
From: Подольск
On Forums: 8 years 11 months
Thanks: 249 time(s)
Russian Federation


здесь можно предварительно заценить


Thanks:
(1) smysl,
Вернуться к началу страницы
  Insert nick Quick quote
+Цитировать сообщение
post Jan 12 2018, 21:49:43
Post #3

Group: Подсевший
Posts: 22
Releases: 0
On Forums: 7 years 9 months
Thanks: 3 time(s)
Ukraine


Альбом 13-го у них был крутейший. Настолько крутой что я доже не понял его. Ну то есть все по мазе но без хитов. Эта кассета хороша, но не на столько чтоб быть лучше чем какой-то бразильский примитив блек метал.


Thanks:
Вернуться к началу страницы
  Insert nick Quick quote
+Цитировать сообщение

ОтветитьСоздать новую тему
2 User(s) are reading this topic (2 Guests and 0 Anonymous Users)
0 Members:

 



- Lo-Fi Version Support form
Copyrights and abuse reports form
Time is now: 24th May 2018 - 14:38:50