Welcome Guest ( Log In | Register )

> Cruentator - Ain't War Hell? (2018), Old School Thrash Metal
post Jan 11 2018, 11:01:51
Post #1

Аннигилятор пивА
Group Icon
Group: V.I.P
Posts: 46,692
Releases: 14016
From: Koenigsberg - TILZIT
On Forums: 11 years 11 months
Thanks: 310876 time(s)
Russian Federation


(IMG:https://metalarea.org/images/audiocovers/2018_Jan/acov_tid300375_thumb.jpg)

*Artist: Cruentator
*Album: Ain't War Hell?
*Year: 2018
*Genre: Old School Thrash Metal
*Country: Italy (IMG:https://metalarea.org/forum/style_images/flags/Italy.png)
*Format: mp3@CBR320kbps
*Size: 82MB

Tracklist:
1.Merciless Extermination 03:36
2.Tyrants of the Wasteland 03:05
3.Barbaric Violence 05:56
4.Evil is Prowling Around 03:48
5.The Nightstalker 04:26
6.Marching Into a Minefield 04:43
7.The Shining Hate 03:18
8.Cluster Terror 03:20
******************************
Total playing time: 32:12




Extended info
1st album by this italian band that plays a fucking raging, furious and merciless Thrash Metal influenced by acts like DEMOLITION HAMMER, MORBID SAINT, SLAUGHTER, RAZOR, KREATOR, SODOM, INCUBUS, DEVASTATION...

Riccardo - Drums (Bowel Stew, ex-Horrid)
Omar - Guitars (Bowel Stew, Mindful of Pripyat)
Ambro - Vocals (ex-Bowel Stew)
Vanni - Bass
Massi FD - Guitars (Bloody Weep)


Technical info
(IMG:https://metalarea.org/images/spectrogram/2018_Jan/34f5648d7d2e904736cdef1933f8d64b.png)
Input File: 02 Tyrants of the Wasteland.mp3
Channels : 2
Sample Rate : 44100
Precision : 16-bit
Duration : 00:03:05.12 = 8163836 samples = 13884.1 CDDA sectors
File Size : 7.47M
Bit Rate : 323k
Sample Encoding: MPEG audio (layer I, II or III)
Comments :
Title=Tyrants Of The Wasteland
Artist=Cruentator
Album=Ain't War Hell?
Tracknumber=02
Year=2018



Register


Вернуться к началу страницы
  Insert nick Quick quote
+Цитировать сообщение
 
Создать новую тему
Replies (1 - 4)
post Jan 11 2018, 12:04:14
Post #2

Аннигилятор пивА
Group Icon
Group: V.I.P
Posts: 46,692
Releases: 14016
From: Koenigsberg - TILZIT
On Forums: 11 years 11 months
Thanks: 310876 time(s)
Russian Federation


Fast-lighting and abrasive old school war-obsessed thrash metal from the minefield

MIRROR
Register



Вернуться к началу страницы
  Insert nick Quick quote
+Цитировать сообщение
post Jan 11 2018, 12:19:55
Post #3

Четыре Литра
****
Group: Металариец
Posts: 343
Releases: 0
From: Przemysl
On Forums: 3 years 4 months
Thanks: 249 time(s)
Poland


Прелестно (IMG:style_emoticons/default/8.gif)
Вернуться к началу страницы
  Insert nick Quick quote
+Цитировать сообщение
post Jan 11 2018, 21:30:01
Post #4

MDM-Thrash Metal
**************
Group: Металариец
Posts: 6,673
Releases: 410
From: Одесса
On Forums: 10 years 9 months
Thanks: 12734 time(s)
Ukraine


Неплохо, конечно, звучит, олд скульно, быстро, но уж слишком как то прямолинейно и предсказуемо.
Вернуться к началу страницы
  Insert nick Quick quote
+Цитировать сообщение
post Jan 12 2018, 21:35:04
Post #5

Group: Подсевший
Posts: 22
Releases: 0
On Forums: 7 years 9 months
Thanks: 3 time(s)
Ukraine


если Слеер это Пикачу, то для Cruentator в мультяшных персонажах аналогов нет. Ну и вряд ли будут. аршлох
Вернуться к началу страницы
  Insert nick Quick quote
+Цитировать сообщение

ОтветитьСоздать новую тему
2 User(s) are reading this topic (2 Guests and 0 Anonymous Users)
0 Members:

 



- Lo-Fi Version Support form
Copyrights and abuse reports form
Time is now: 24th May 2018 - 14:38:32