Welcome Guest ( Log In | Register )

 
Reply to this topicStart new topic
> Asgard - Una Maquina Infernale (2017), Black Metal (D)
post Jan 11 2018, 12:12:59
Post #1

Правь статус, ####!111
**************
Group: Металариец
Posts: 6,014
Releases: 5543
From: Lithuania
On Forums: 11 years 10 months
Thanks: 40106 time(s)
Lithuania


(IMG:https://metalarea.org/images/audiocovers/2018_Jan/acov_tid300382_thumb.jpg)

*Artist: Asgard
*Album: Una Maquina Infernale
*Year: 2017
*Genre: Black Metal
*Country: Czech Republic (IMG:https://metalarea.org/forum/style_images/flags/Czech%20Republic.png)
*Format: mp3@VBR164kbps (IMG:https://metalarea.org/images/bit_low.gif)
*Size: 36MB

Tracklist:
1. Les Prelude
2. Údery hodin
3. Dědictví čisté mysli
4. Z nebe prší krev
5. Stávám se nocí
6. Černé růže
7. Una maquina infernale
8. Znovuzrození
9. Přísahám
******************************
Total playing time: 30:00

Preview 1


Technical info
(IMG:https://metalarea.org/images/spectrogram/2018_Jan/5742d32d894af0e8d0707b7462cd40a5.png)
Input File: 02 ?dery Hodin.mp3
Channels : 2
Sample Rate : 44100
Precision : 16-bit
Duration : 00:03:14.90 = 8595046 samples = 14617.4 CDDA sectors
File Size : 4.14M
Bit Rate : 170k
Sample Encoding: MPEG audio (layer I, II or III)
Comments :
Title=Гљdery Hodin
Artist=Asgard
Album=Una Maquina Infernale
Tracknumber=2
Year=2017
Genre=Black Metal



Register


Go to the top of the page
  Insert nick Quick quote
+Quote Post

Reply to this topicStart new topic
1 User(s) are reading this topic (1 Guests and 0 Anonymous Users)
0 Members:

 



- Lo-Fi Version Support form
Copyrights and abuse reports form
Time is now: 17th August 2018 - 14:18:06