Welcome Guest ( Log In | Register )

> Mystic Prophecy - Monuments Uncovered (2018), Heavy/Power Metal
post Jan 11 2018, 12:43:52
Post #1

Правь статус, ####!111
**************
Group: Металариец
Posts: 13,016
Releases: 9249
From: Г.Харьков
On Forums: 6 years 1 week
Thanks: 150340 time(s)
Unknown


(IMG:http://metalarea.org/images/audiocovers/2018_Jan/acov_tid300384_thumb.jpg)

*Artist: Mystic Prophecy
*Album: Monuments Uncovered
*Year: 2018
*Genre: Heavy/Power Metal
*Country: Germany (IMG:http://metalarea.org/forum/style_images/flags/Germany.png)
*Format: mp3@CBR320kbps
*Size: 93MB

Tracklist:
1. You Keep Me Hangin' On (Kim Wilde/The Supremes cover)
2. Hot Stuff (Donna Summer cover)
3. Shadow on the Wall (Mike Oldfield cover)
4. Are You Gonna Go My Way (Lenny Kravitz cover)
5. I'm Still Standing (Elton John cover)
6. Because the Night (Patti Smith cover)
7. Space Lord (Monster Magnet cover)
8. Get It On (T. Rex cover)
9. Tokyo (Tokyo cover)
10. Proud Mary (Creedence Clearwater Revival cover)
******************************
Total playing time: 40:45



Extended info


Technical info
(IMG:http://metalarea.org/images/spectrogram/2018_Jan/068d47063f879f97202cbde03e18c297.png)
Input File: 02 Hot Stuff.mp3
Channels : 2
Sample Rate : 44100
Precision : 16-bit
Duration : 00:03:47.05 = 10012949 samples = 17028.8 CDDA sectors
File Size : 9.08M
Bit Rate : 320k
Sample Encoding: MPEG audio (layer I, II or III)
Comments :
Title=Hot Stuff
Artist=Mystic Prophecy
Album=Monuments Uncovered
Tracknumber=2
Year=2018
Discnumber=1



Register


Вернуться к началу страницы
  Insert nick Quick quote
+Цитировать сообщение
 
Создать новую тему
Replies (1 - 6)
post Jan 12 2018, 08:07:47
Post #2

hearer & reader
**************
Group: Металариец
Posts: 6,216
Releases: 81
From: Moscow
On Forums: 10 years 8 months
Thanks: 6368 time(s)
Russian Federation


Добавить надо:
11. The Stroke (Billy Squier cover) 03:40
Это LE.


Thanks:
Вернуться к началу страницы
  Insert nick Quick quote
+Цитировать сообщение
post Jan 12 2018, 17:32:51
Post #3

Попсовик от брутала
**************
Group: Металариец
Posts: 5,884
Releases: 56
From: Минск
On Forums: 9 years 5 months
Thanks: 4731 time(s)
Belarus


Качну ради Space Lord
Вернуться к началу страницы
  Insert nick Quick quote
+Цитировать сообщение
post Jan 12 2018, 21:22:56
Post #4

Group: Подсевший
Posts: 22
Releases: 0
On Forums: 7 years 9 months
Thanks: 3 time(s)
Ukraine


очень много скобок. слишком жирный звук. я захлебнулся. щит
Вернуться к началу страницы
  Insert nick Quick quote
+Цитировать сообщение
post Jan 15 2018, 08:54:51
Post #5

Ъ
**************
Group: Металариец
Posts: 9,021
Releases: 9
On Forums: 9 years 4 months
Thanks: 1683 time(s)
Sweden


На раз прогнал, ничего интересного, ни одного годного кавера.
Вернуться к началу страницы
  Insert nick Quick quote
+Цитировать сообщение
post Jan 25 2018, 14:47:56
Post #6

MDM-Thrash Metal
**************
Group: Металариец
Posts: 6,673
Releases: 410
From: Одесса
On Forums: 10 years 9 months
Thanks: 12734 time(s)
Ukraine


Чего, вполне неплохо.





Вернуться к началу страницы
  Insert nick Quick quote
+Цитировать сообщение
post Jan 26 2018, 21:13:29
Post #7

No More Tears
**************
Group: Металариец
Posts: 4,929
Releases: 115
From: Тбилиси, Грузия
On Forums: 11 years 10 months
Thanks: 2333 time(s)
Georgia


Удручение да и только
Вернуться к началу страницы
  Insert nick Quick quote
+Цитировать сообщение

ОтветитьСоздать новую тему
2 User(s) are reading this topic (2 Guests and 0 Anonymous Users)
0 Members:

 



- Lo-Fi Version Support form
Copyrights and abuse reports form
Time is now: 24th May 2018 - 14:36:08