Welcome Guest ( Log In | Register )

 
ОтветитьСоздать новую тему
> Constant Threat - Illusions Of The Divine (2018), Instrumental Death/Thrash Metal (D6)
post Jan 11 2018, 14:39:22
Post #1

Serial Uploader
Group Icon
Group: V.I.P
Posts: 32,483
Releases: 30777
From: Lithuania
On Forums: 9 years 11 months
Thanks: 353470 time(s)
Lithuania


(IMG:https://metalarea.org/images/audiocovers/2018_Jan/acov_tid300392_thumb.jpg)

*Artist: Constant Threat
*Album: Illusions Of The Divine
*Year: 2018
*Genre: Instrumental Death/Thrash Metal
*Country: United States (IMG:https://metalarea.org/forum/style_images/flags/United%20States.png)
*Format: mp3@CBR320kbps
*Size: 111MB

Tracklist:
01. Shadowscape
02. Profane Apparitions
03. Tower Of Disdain
04. Illusions Of The Divine
05. Dreadful Faith
06. Oblivion Awaits
07. Blood Offering
08. Temple Of The Dead
09. Vanishing In Silence
10. Passage Into Darkness
11. Forgotten Remnants
******************************
Total playing time: 43:41

(IMG:https://metalarea.org/images/myspace.png)


Technical info
(IMG:https://metalarea.org/images/spectrogram/2018_Jan/dd3b797712707d5bfd57e6c078f70d61.png)
Input File: 02. Profane Apparitions.mp3
Channels : 2
Sample Rate : 44100
Precision : 16-bit
Duration : 00:03:39.24 = 9668616 samples = 16443.2 CDDA sectors
File Size : 8.85M
Bit Rate : 323k
Sample Encoding: MPEG audio (layer I, II or III)
Comments :
Title=Profane Apparitions
Artist=Constant Threat
Album=Illusions of the Divine
Tracknumber=2/11
Year=2018
Genre=9
Discnumber=1/1



Register


Thanks:
Вернуться к началу страницы
  Insert nick Quick quote
+Цитировать сообщение

ОтветитьСоздать новую тему
1 User(s) are reading this topic (1 Guests and 0 Anonymous Users)
0 Members:

 



- Lo-Fi Version Support form
Copyrights and abuse reports form
Time is now: 24th May 2018 - 14:28:48