Welcome Guest ( Log In | Register )

> Releases Upload / Добавление релизов

Добавить релиз тут / Click here to add release
Рекомендованные обменники / Recommended file shares

> Bleeding Gods - Dodekathlon (2018), Epic Death/Thrash Metal
post Jan 11 2018, 14:47:21
Post #1

Правь статус, ####!111
**************
Group: Металариец
Posts: 12,222
Releases: 8827
From: Г.Харьков
On Forums: 5 years 9 months
Thanks: 141385 time(s)
Unknown


(IMG:http://metalarea.org/images/audiocovers/2018_Jan/acov_tid300393_thumb.jpg)

*Artist: Bleeding Gods
*Album: Dodekathlon
*Year: 2018
*Genre: Epic Death/Thrash Metal
*Country: Netherlands (IMG:http://metalarea.org/forum/style_images/flags/Netherlands.png)
*Format: mp3@CBR320kbps
*Size: 124MB

Tracklist:
1. Bloodguilt 05:41
2. Multiple Decapitation 05:23
3. Beloved Artemis 04:23
4. From Feast to Beast 05:27
5. Inhuman Humiliation 04:48
6. Birds of Hate 04:07
7. Savior of Crete 05:02
8. Tyrannical Blood 03:38
9. Seeds of Distrust 04:48
10. Tripled Anger 06:54
11. Hera's Orchard 05:40
12. Hound of Hell 03:29
******************************
Total playing time: 59:20



Extended info
Mark Huisman - Vocals.
Ramon Ploeg - Guitar.
Gea Mulder - Bass & Backing vocals
Rutger van Noordenburg - Guitar.
Daan Klemann - Drums



Technical info
(IMG:http://metalarea.org/images/spectrogram/2018_Jan/77598031aaaf4952b4903f64fa654cb3.png)
Input File: 3 Beloved By Artemis.mp3
Channels : 2
Sample Rate : 44100
Precision : 16-bit
Duration : 00:04:23.26 = 11609898 samples = 19744.7 CDDA sectors
File Size : 10.6M
Bit Rate : 322k
Sample Encoding: MPEG audio (layer I, II or III)
Comments :
Title=Beloved By Artemis
Artist=Bleeding Gods
Album=Dodekathlon
Tracknumber=3/12
Year=2018
Genre=9
Discnumber=1/1



Register


Вернуться к началу страницы
  Insert nick Quick quote
+Цитировать сообщение
 
Создать новую тему
Replies (1 - 2)
post Jan 11 2018, 18:33:05
Post #2

Правь статус, ####!111
**************
Group: Металариец
Posts: 12,222
Releases: 8827
From: Г.Харьков
On Forums: 5 years 9 months
Thanks: 141385 time(s)
Unknown


Register


Thanks:
Вернуться к началу страницы
  Insert nick Quick quote
+Цитировать сообщение
post Jan 12 2018, 07:50:39
Post #3

hearer & reader
**************
Group: Металариец
Posts: 5,995
Releases: 78
From: Moscow
On Forums: 10 years 5 months
Thanks: 6220 time(s)
Russian Federation





Thanks:
Вернуться к началу страницы
  Insert nick Quick quote
+Цитировать сообщение

ОтветитьСоздать новую тему
1 User(s) are reading this topic (1 Guests and 0 Anonymous Users)
0 Members:

 



- Lo-Fi Version Support form
Copyrights and abuse reports form
Time is now: 24th February 2018 - 07:10:40