Welcome Guest ( Log In | Register )

> Releases Upload / Добавление релизов

Добавить релиз тут / Click here to add release
Рекомендованные обменники / Recommended file shares

 
ОтветитьСоздать новую тему
> Random Battles - ReBort [ep] (2018), Instrumental/Progressive Metal
post Jan 11 2018, 14:48:07
Post #1

Serial Uploader
Group Icon
Group: V.I.P
Posts: 31,468
Releases: 29800
From: Lithuania
On Forums: 9 years 8 months
Thanks: 342155 time(s)
Lithuania


(IMG:https://metalarea.org/images/audiocovers/2018_Jan/acov_tid300394_thumb.jpg)

*Artist: Random Battles
*Album: ReBort [ep]
*Year: 2018
*Genre: Instrumental/Progressive Metal
*Country: United States (IMG:https://metalarea.org/forum/style_images/flags/United%20States.png)
*Format: mp3@CBR320kbps
*Size: 54MB

Tracklist:
01. Guardian Of Light And Shadow (Illusion Of Gaia)
02. Flowers Blooming In The Attic (Final Fantasy VII)
03. Guided By Disordinary Rocks (Cadash)
04. Danger, Dark Star! (Secret Of Mana)
05. Dying Wishes Of Battle (Shining Force II)
******************************
Total playing time: 23:22



Technical info
(IMG:https://metalarea.org/images/spectrogram/2018_Jan/a37290ce80ce23427c70235a37245bea.png)
Input File: 02. Flowers Blooming in the Attic (Final Fantasy VII).mp3
Channels : 2
Sample Rate : 44100
Precision : 16-bit
Duration : 00:04:10.65 = 11053445 samples = 18798.4 CDDA sectors
File Size : 10.2M
Bit Rate : 326k
Sample Encoding: MPEG audio (layer I, II or III)
Comments :
Title=Flowers Blooming in the Attic (Final Fantasy VII)
Artist=Random Battles
Album=ReBort
Tracknumber=2/5
Year=2018
Genre=10
Discnumber=1/1



Register


Thanks:
(2) csgmnk, Rosen,
Вернуться к началу страницы
  Insert nick Quick quote
+Цитировать сообщение

ОтветитьСоздать новую тему
1 User(s) are reading this topic (1 Guests and 0 Anonymous Users)
0 Members:

 



- Lo-Fi Version Support form
Copyrights and abuse reports form
Time is now: 24th February 2018 - 07:14:22