Welcome Guest ( Log In | Register )

> Tankard - Hymns For The Drunk [compilation] (2018), Thrash Metal (D)
post Jan 11 2018, 14:53:33
Post #1

Serial Uploader
Group Icon
Group: V.I.P
Posts: 32,484
Releases: 30777
From: Lithuania
On Forums: 9 years 11 months
Thanks: 353470 time(s)
Lithuania


(IMG:https://metalarea.org/images/audiocovers/2018_Jan/acov_tid300395_thumb.jpg)

*Artist: Tankard
*Album: Hymns For The Drunk [compilation]
*Year: 2018
*Genre: Thrash Metal
*Country: Germany (IMG:https://metalarea.org/forum/style_images/flags/Germany.png)
*Format: mp3@CBR320kbps
*Size: 178MB

Tracklist:
01. Rectifier 04:11
02. Need Money For Beer 03:35
03. New Liver Please! 03:35
04. Slipping From Reality 04:16
05. Die With A Beer In Your Hand 05:33
06. We’re Coming Back 03:28
07. We Still Drink The Old Ways 04:05
08. The Beauty And The Beast 06:05
09. Metaltometal 04:50
10. Zombie Attack 03:31
11. (Empty) Tankard 05:01
12. The Morning After 04:22
13. Medley (Alcohol, Puke, Mon Cheri, Wonderful Life) 04:43
14. Octane Warriors 05:07
15. Stay Thirsty! 04:39
16. Time Warp 05:59
17. Rules For Fools 03:54
******************************
Total playing time: 1:16:54

(IMG:https://metalarea.org/images/myspace.png)



Technical info
(IMG:https://metalarea.org/images/spectrogram/2018_Jan/e69116901407174a529a5fb6df4c024b.png)
Input File: 02. Need Money for Beer.mp3
Channels : 2
Sample Rate : 44100
Precision : 16-bit
Duration : 00:03:35.82 = 9517662 samples = 16186.5 CDDA sectors
File Size : 8.74M
Bit Rate : 324k
Sample Encoding: MPEG audio (layer I, II or III)
Comments :
Title=Need Money for Beer
Artist=Tankard
Album=Hymns for the Drunk
Tracknumber=2/17
Year=2018
Genre=17
Discnumber=1/1



Register


Вернуться к началу страницы
  Insert nick Quick quote
+Цитировать сообщение
 
Создать новую тему
Replies (1 - 6)
post Jan 11 2018, 18:41:21
Post #2

MDM-Thrash Metal
**************
Group: Металариец
Posts: 6,673
Releases: 410
From: Одесса
On Forums: 10 years 9 months
Thanks: 12734 time(s)
Ukraine


Register


Вернуться к началу страницы
  Insert nick Quick quote
+Цитировать сообщение
post Jan 11 2018, 22:30:08
Post #3

hearer & reader
**************
Group: Металариец
Posts: 6,216
Releases: 81
From: Moscow
On Forums: 10 years 8 months
Thanks: 6368 time(s)
Russian Federation


Ага. Это забираю на Старый Новый.
Вернуться к началу страницы
  Insert nick Quick quote
+Цитировать сообщение
post Jan 12 2018, 08:48:23
Post #4

Русь Понад Усе!
**************
Group: Металариец
Posts: 4,013
Releases: 14
From: Украина
On Forums: 10 years 8 months
Thanks: 1512 time(s)
Ukraine


Отличный трешняк, забойные хиты!
Вернуться к началу страницы
  Insert nick Quick quote
+Цитировать сообщение
post Jan 14 2018, 19:43:43
Post #5

Два Литра
**
Group: Завсегдатай
Posts: 196
Releases: 0
From: Кирово-Чепецк
On Forums: 3 years 1 month
Thanks: 14 time(s)
Russian Federation


Все таки эра нойз рекордс у них прикольнее чем эра AFM В этом сборнике
Вернуться к началу страницы
  Insert nick Quick quote
+Цитировать сообщение
post Jan 30 2018, 18:34:29
Post #6

Шесть Литров
******
Group: Металариец
Posts: 601
Releases: 0
From: Sweden
On Forums: 9 years 2 months
Thanks: 13 time(s)
Sweden


Cheers!!!
Вернуться к началу страницы
  Insert nick Quick quote
+Цитировать сообщение
post Apr 19 2018, 16:29:29
Post #7

No More Tears
**************
Group: Металариец
Posts: 4,929
Releases: 115
From: Тбилиси, Грузия
On Forums: 11 years 10 months
Thanks: 2333 time(s)
Georgia


Такая удручающая компиляция давно мне не попадалась. Может быть это у меня было не соотвествующее для стиля настроение? Не думаю.
То есть все дубово, плоско мне тут услышалось.
Вернуться к началу страницы
  Insert nick Quick quote
+Цитировать сообщение

ОтветитьСоздать новую тему
1 User(s) are reading this topic (1 Guests and 0 Anonymous Users)
0 Members:

 



- Lo-Fi Version Support form
Copyrights and abuse reports form
Time is now: 24th May 2018 - 14:33:39