Welcome Guest ( Log In | Register )

> Horna - Kuolleiden Kuu [ep] (2018), Black Metal (D)
post Jan 11 2018, 14:56:29
Post #1

Правь статус, ####!111
**************
Group: Металариец
Posts: 3,268
Releases: 616
From: Brazil
On Forums: 6 years 6 months
Thanks: 24814 time(s)
Brazil


(IMG:https://metalarea.org/images/audiocovers/2018_Jan/acov_tid300396_thumb.jpg)

*Artist: Horna
*Album: Kuolleiden Kuu [ep]
*Year: 2018
*Genre: Black Metal
*Country: Finland (IMG:https://metalarea.org/forum/style_images/flags/Finland.png)
*Format: mp3@CBR320kbps
*Size: 39MB

Tracklist:
1. Uskonpauhu 05:32
2. Kuolleiden kuu 02:26
3. Tдhdet tдhdet (Rauli Badding Somerjoki cover) 03:31
4. Viattomien silmin 05:06
******************************
Total playing time: 16:35



Extended info
Recorded and mixed at Blackvox Studio, during the "Hengen Tulet" album sessions. Mastered by T.T. "Tдhdet Tдhdet" originally by Rauli Badding Somerjoki. Artwork by Valeria RS. Layout by Elena Vasilaki.

Line-up on "Kuolleiden Kuu"

Shatraug - guitar
Infection - guitar
Spellgoth - voice
Hex Inferi - bass
Vainaja - battery


Technical info
(IMG:https://metalarea.org/images/spectrogram/2018_Jan/e80b0b94510f35511ca8c00dbf3c2e56.png)
Input File: 03 Tдhdet tдhdet (Rauli Badding Somerjoki cover).mp3
Channels : 2
Sample Rate : 44100
Precision : 16-bit
Duration : 00:03:31.48 = 9326312 samples = 15861.1 CDDA sectors
File Size : 8.46M
Bit Rate : 320k
Sample Encoding: MPEG audio (layer I, II or III)
Comments :
Title=Tähdet tähdet (Rauli Badding Somerjoki cover)
Artist=Horna
Album=Kuolleiden kuu
Tracknumber=3
Year=2018



Register


Go to the top of the page
  Insert nick Quick quote
+Quote Post
 
Start new topic
Replies (1 - 6)
post Jan 11 2018, 18:28:02
Post #2

Правь статус, ####!111
**************
Group: Металариец
Posts: 33,398
Releases: 488
On Forums: 9 years 2 months
Thanks: 25511 time(s)
Russian Federation


@320

Register


Go to the top of the page
  Insert nick Quick quote
+Quote Post
post Jan 30 2018, 01:30:00
Post #3

Самый Тихий Час
**************
Group: Металариец
Posts: 5,553
Releases: 0
On Forums: 8 years 9 months
Thanks: 2396 time(s)
Unknown


Чет ни о чем опять.
2006 и 2008 самый сок по прежнему.
Go to the top of the page
  Insert nick Quick quote
+Quote Post
post Jan 30 2018, 10:34:58
Post #4

Котеги! Нравяцо котеги?
**************
Group: Металариец
Posts: 4,778
Releases: 0
From: Терра Инкогнита
On Forums: 8 years 2 months
Thanks: 1628 time(s)
Russian Federation


ЦИТАТА(Chasm @ 30th January 2018 - 03:30:00) *
Чет ни о чем

так
Go to the top of the page
  Insert nick Quick quote
+Quote Post
post Jan 30 2018, 10:40:03
Post #5

а ты попал в даунтаун
*********
Group: Металариец
Posts: 978
Releases: 46
From: Москва
On Forums: 9 years 3 months
Thanks: 2827 time(s)
Russian Federation


Kuolleiden kuu хорошая песня в духе Шатрауга, остальное где-то на тройку, как и почти всё, что выходит из-под этой вывески в последние годы.
Go to the top of the page
  Insert nick Quick quote
+Quote Post
post Jan 30 2018, 12:17:57
Post #6

Три Литра
***
Group: Завсегдатай
Posts: 233
Releases: 0
On Forums: 9 months 2 weeks
Thanks: 87 time(s)
United States


Для нынешней Хорны это стандартный релиз. Ни чего нового, все на очень хорошем уровне. Мне конечно по душе больше то что они делали в конце 90х начале 2000ых, но и из последних релизов есть что послушать и даже прикупить для коллекции на физ. носителях. Вот этот релиз я бы и прикупил...
Go to the top of the page
  Insert nick Quick quote
+Quote Post
post Jul 26 2018, 19:48:32
Post #7

добрый мизантроп
**********
Group: Металариец
Posts: 1,309
Releases: 0
From: Минск
On Forums: 7 years 8 months
Thanks: 399 time(s)
Madagascar


2 раза подряд прогнал - хороший альбом, приятная гармоника, но немного поднадоел)
Go to the top of the page
  Insert nick Quick quote
+Quote Post

Reply to this topicStart new topic
1 User(s) are reading this topic (1 Guests and 0 Anonymous Users)
0 Members:

 



- Lo-Fi Version Support form
Copyrights and abuse reports form
Time is now: 15th August 2018 - 08:04:52