Welcome Guest ( Log In | Register )

> Horna - Kuolleiden Kuu [ep] (2018), Black Metal (D)
post Jan 11 2018, 14:56:29
Post #1

Правь статус, ####!111
**************
Group: Металариец
Posts: 3,203
Releases: 569
From: Brazil
On Forums: 6 years 3 months
Thanks: 23336 time(s)
Brazil


(IMG:https://metalarea.org/images/audiocovers/2018_Jan/acov_tid300396_thumb.jpg)

*Artist: Horna
*Album: Kuolleiden Kuu [ep]
*Year: 2018
*Genre: Black Metal
*Country: Finland (IMG:https://metalarea.org/forum/style_images/flags/Finland.png)
*Format: mp3@CBR320kbps
*Size: 39MB

Tracklist:
1. Uskonpauhu 05:32
2. Kuolleiden kuu 02:26
3. Tдhdet tдhdet (Rauli Badding Somerjoki cover) 03:31
4. Viattomien silmin 05:06
******************************
Total playing time: 16:35



Extended info
Recorded and mixed at Blackvox Studio, during the "Hengen Tulet" album sessions. Mastered by T.T. "Tдhdet Tдhdet" originally by Rauli Badding Somerjoki. Artwork by Valeria RS. Layout by Elena Vasilaki.

Line-up on "Kuolleiden Kuu"

Shatraug - guitar
Infection - guitar
Spellgoth - voice
Hex Inferi - bass
Vainaja - battery


Technical info
(IMG:https://metalarea.org/images/spectrogram/2018_Jan/e80b0b94510f35511ca8c00dbf3c2e56.png)
Input File: 03 Tдhdet tдhdet (Rauli Badding Somerjoki cover).mp3
Channels : 2
Sample Rate : 44100
Precision : 16-bit
Duration : 00:03:31.48 = 9326312 samples = 15861.1 CDDA sectors
File Size : 8.46M
Bit Rate : 320k
Sample Encoding: MPEG audio (layer I, II or III)
Comments :
Title=Tähdet tähdet (Rauli Badding Somerjoki cover)
Artist=Horna
Album=Kuolleiden kuu
Tracknumber=3
Year=2018



Register


Вернуться к началу страницы
  Insert nick Quick quote
+Цитировать сообщение
 
Создать новую тему
Replies (1 - 5)
post Jan 11 2018, 18:28:02
Post #2
BAN
Banned till
May 22 2018, 16:32:46



@320

Register


Вернуться к началу страницы
  Insert nick Quick quote
+Цитировать сообщение
post Jan 30 2018, 01:30:00
Post #3

Flowers Of The Underworld
**************
Group: Металариец
Posts: 5,172
Releases: 0
On Forums: 8 years 6 months
Thanks: 2167 time(s)
Unknown


Чет ни о чем опять.
2006 и 2008 самый сок по прежнему.
Вернуться к началу страницы
  Insert nick Quick quote
+Цитировать сообщение
post Jan 30 2018, 10:34:58
Post #4

Котеги! Нравяцо котеги?
**************
Group: Металариец
Posts: 4,434
Releases: 0
From: Терра Инкогнита
On Forums: 7 years 11 months
Thanks: 1472 time(s)
Russian Federation


ЦИТАТА(Chasm @ 30th January 2018 - 03:30:00) *
Чет ни о чем

так
Вернуться к началу страницы
  Insert nick Quick quote
+Цитировать сообщение
post Jan 30 2018, 10:40:03
Post #5

а ты попал в даунтаун
********
Group: Металариец
Posts: 896
Releases: 45
From: Москва
On Forums: 9 years 4 weeks
Thanks: 2680 time(s)
Russian Federation


Kuolleiden kuu хорошая песня в духе Шатрауга, остальное где-то на тройку, как и почти всё, что выходит из-под этой вывески в последние годы.
Вернуться к началу страницы
  Insert nick Quick quote
+Цитировать сообщение
post Jan 30 2018, 12:17:57
Post #6

Два Литра
**
Group: Завсегдатай
Posts: 168
Releases: 0
On Forums: 6 months 3 weeks
Thanks: 56 time(s)
United States


Для нынешней Хорны это стандартный релиз. Ни чего нового, все на очень хорошем уровне. Мне конечно по душе больше то что они делали в конце 90х начале 2000ых, но и из последних релизов есть что послушать и даже прикупить для коллекции на физ. носителях. Вот этот релиз я бы и прикупил...
Вернуться к началу страницы
  Insert nick Quick quote
+Цитировать сообщение

ОтветитьСоздать новую тему
2 User(s) are reading this topic (2 Guests and 0 Anonymous Users)
0 Members:

 



- Lo-Fi Version Support form
Copyrights and abuse reports form
Time is now: 22nd May 2018 - 02:57:44