Welcome Guest ( Log In | Register )

> Rite Of Thalia - Discordia (2018), Symphonic Metal
post Jan 11 2018, 14:57:53
Post #1

Serial Uploader
Group Icon
Group: V.I.P
Posts: 32,486
Releases: 30777
From: Lithuania
On Forums: 9 years 11 months
Thanks: 353474 time(s)
Lithuania


(IMG:https://metalarea.org/images/audiocovers/2018_Jan/acov_tid300397_thumb.jpg)

*Artist: Rite Of Thalia
*Album: Discordia
*Year: 2018
*Genre: Symphonic Metal
*Country: Italy (IMG:https://metalarea.org/forum/style_images/flags/Italy.png)
*Format: mp3@CBR320kbps
*Size: 115MB

Tracklist:
01. Fragment
02. Sacrificium
03. Confession
04. Discordia
05. Twin Enemies
06. Shades
07. Tales Of Sudden Fate
08. Hostages Of Tragedy (Feat. Matthew Mills)
09. Looking In The Mirror
10. I Promised
11. Black Orchid
12. All That Remains
******************************
Total playing time: 49:54



Technical info
(IMG:https://metalarea.org/images/spectrogram/2018_Jan/5d71493afdfbf31ec3d01993c3cd0ca6.png)
Input File: 02. Sacrificium.mp3
Channels : 2
Sample Rate : 44100
Precision : 16-bit
Duration : 00:04:33.22 = 12048870 samples = 20491.3 CDDA sectors
File Size : 11.0M
Bit Rate : 323k
Sample Encoding: MPEG audio (layer I, II or III)
Comments :
Title=Sacrificium
Artist=Rite of Thalia
Album=Discordia
Tracknumber=2/12
Year=2017
Genre=17
Discnumber=1/1



Register


Вернуться к началу страницы
  Insert nick Quick quote
+Цитировать сообщение
 
Создать новую тему
Replies (1 - 3)
post Jan 11 2018, 22:28:25
Post #2

hearer & reader
**************
Group: Металариец
Posts: 6,216
Releases: 81
From: Moscow
On Forums: 10 years 8 months
Thanks: 6368 time(s)
Russian Federation



мне хватило, на трубе ещё полно треков
Вернуться к началу страницы
  Insert nick Quick quote
+Цитировать сообщение
post Jan 27 2018, 17:46:46
Post #3

Перевозчик
**************
Group: Металариец
Posts: 2,697
Releases: 0
On Forums: 9 years 10 months
Thanks: 543 time(s)
Russian Federation


Не так и плохо на самом деле. Просто опять этот зашкварный тип вокала.

Вернуться к началу страницы
  Insert nick Quick quote
+Цитировать сообщение
post Jan 28 2018, 19:17:32
Post #4

No More Tears
**************
Group: Металариец
Posts: 4,929
Releases: 115
From: Тбилиси, Грузия
On Forums: 11 years 10 months
Thanks: 2333 time(s)
Georgia


Трубочный превью и мне совсем хватило. Уже трудно для меня понять, как такую музыку, так исполненную и спетую, можно целым альбомом проглотить?
Вернуться к началу страницы
  Insert nick Quick quote
+Цитировать сообщение

ОтветитьСоздать новую тему
2 User(s) are reading this topic (2 Guests and 0 Anonymous Users)
0 Members:

 



- Lo-Fi Version Support form
Copyrights and abuse reports form
Time is now: 24th May 2018 - 14:51:23