Welcome Guest ( Log In | Register )

> Horna & Pure - Horna/Pure [split] (2018), Black Metal | Black Metal (D)(D)
post Jan 11 2018, 15:06:03
Post #1

Правь статус, ####!111
**************
Group: Металариец
Posts: 3,268
Releases: 616
From: Brazil
On Forums: 6 years 6 months
Thanks: 24814 time(s)
Brazil


(IMG:https://metalarea.org/images/audiocovers/2018_Jan/acov_tid300399_thumb.jpg)

*Artist: Horna & Pure
*Album: Horna/Pure [split]
*Year: 2018
*Genre: Black Metal | Black Metal
*Country: Finland (IMG:https://metalarea.org/forum/style_images/flags/Finland.png) | Switzerland (IMG:https://metalarea.org/forum/style_images/flags/Switzerland.png)
*Format: mp3@CBR320kbps
*Size: 91MB

Tracklist:
Horna:
1. Nielkдд tuhkaa! 04:21
2. Kaaos 04:50
3. Kielletyn tulen kantaja 05:32
4. Kohti myrskyjen vuosia 03:19
Pure:
5. Astral Vanity 05:47
6. Imara 06:03
7. The Black Depths 04:50
8. Disclosure of Knowledge 04:45
******************************
Total playing time: 39:27

Extended info
HORNA's latest recordings and the first ones featuring LRH, who joinded the Band in 2016 as the permanent drummer, representing nothing but pure Finnish Black Metal mastery. Second on this split album and in no way inferior, are PURE from Switzerland, offering fierce & cold Black Metal.
credits
released January 4, 2018

--- HORNA ---

Shatraug - Guitars
Infection - Guitars
Hex Inferi - Bass
Spellgoth - Vocals
LRH - Drums

Recorded, mixed and mastered by LRH.
Music and lyrics by Shatraug, arranged by Horna.
Artwork by DK13 Design. Layout by Elena Vasilaki.

--- PURE ---

Bornyhake - Guitars, Vocals
Beast - Bass
Thorns - Drums

Recorded and mixed at Beastcave studio
Mastered at Chaos studio 2.0
All music and lyrics by Bornyhake
Logo by Christophe Szpajdel


Technical info
(IMG:https://metalarea.org/images/spectrogram/2018_Jan/25d6426e8e0b1046bce68a433ca8d057.png)
Input File: 02 - Horna - Kaaos.mp3
Channels : 2
Sample Rate : 44100
Precision : 16-bit
Duration : 00:04:50.64 = 12817180 samples = 21797.9 CDDA sectors
File Size : 11.6M
Bit Rate : 320k
Sample Encoding: MPEG audio (layer I, II or III)
Comments :
Title=Kaaos
Artist=Horna
Album= Horna / Pure
Tracknumber=2
Year=2018
Genre=Black Metal



Register


Go to the top of the page
  Insert nick Quick quote
+Quote Post
 
Start new topic
Replies (1 - 3)
post Jan 11 2018, 18:39:20
Post #2

Правь статус, ####!111
**************
Group: Металариец
Posts: 33,398
Releases: 488
On Forums: 9 years 2 months
Thanks: 25511 time(s)
Russian Federation


@320

Register


Go to the top of the page
  Insert nick Quick quote
+Quote Post
post Jan 13 2018, 06:47:29
Post #3

i listen to black metal
**************
Group: Металариец
Posts: 2,180
Releases: 129
From: Москва-Лианозово
On Forums: 11 years 7 months
Thanks: 2009 time(s)
Russian Federation


как же грустно что Pure ушли от депры( плачу) (IMG:style_emoticons/default/6.gif) (IMG:style_emoticons/default/6.gif) (IMG:style_emoticons/default/6.gif)
Go to the top of the page
  Insert nick Quick quote
+Quote Post
post Jan 13 2018, 06:56:16
Post #4

Четыре Литра
****
Group: Металариец
Posts: 387
Releases: 1
On Forums: 6 years 1 month
Thanks: 176 time(s)
South Korea


Horna - изумление. Потрясён, как качеством работы, так и самими композициями.
Go to the top of the page
  Insert nick Quick quote
+Quote Post

Reply to this topicStart new topic
1 User(s) are reading this topic (1 Guests and 0 Anonymous Users)
0 Members:

 



- Lo-Fi Version Support form
Copyrights and abuse reports form
Time is now: 15th August 2018 - 08:04:47