Welcome Guest ( Log In | Register )

 
ОтветитьСоздать новую тему
> Upheaval - Altar Of Ash (2018), Sludge/Doom Metal (D8)
post Jan 11 2018, 15:11:13
Post #1

Serial Uploader
Group Icon
Group: V.I.P
Posts: 32,486
Releases: 30777
From: Lithuania
On Forums: 9 years 11 months
Thanks: 353473 time(s)
Lithuania


(IMG:https://metalarea.org/images/audiocovers/2018_Jan/acov_tid300400_thumb.jpg)

*Artist: Upheaval
*Album: Altar Of Ash
*Year: 2018
*Genre: Sludge/Doom Metal
*Country: United States (IMG:https://metalarea.org/forum/style_images/flags/United%20States.png)
*Format: mp3@CBR320kbps
*Size: 63MB

Tracklist:
01. Burning Dark
02. Eviscerate The Light
03. Beast Of Carnage
04. Abyss
05. Altar Of Ash
06. Consumed By Fire
07. Resurrection
08. Ascension
******************************
Total playing time: 27:20



Technical info
(IMG:https://metalarea.org/images/spectrogram/2018_Jan/f9de26eb990a430dda88476568554d8c.png)
Input File: 02. Eviscerate the Light.mp3
Channels : 2
Sample Rate : 44100
Precision : 16-bit
Duration : 00:03:16.02 = 8644394 samples = 14701.4 CDDA sectors
File Size : 7.97M
Bit Rate : 325k
Sample Encoding: MPEG audio (layer I, II or III)
Comments :
Title=Eviscerate the Light
Artist=Upheaval
Album=Altar of Ash
Tracknumber=2/8
Year=2018
Genre=9
Discnumber=1/1



Register


Вернуться к началу страницы
  Insert nick Quick quote
+Цитировать сообщение

ОтветитьСоздать новую тему
2 User(s) are reading this topic (2 Guests and 0 Anonymous Users)
0 Members:

 



- Lo-Fi Version Support form
Copyrights and abuse reports form
Time is now: 24th May 2018 - 14:49:36