Welcome Guest ( Log In | Register )

> Battle Tales - The Ire Of The Condemned (2018), Folk Metal
post Jan 11 2018, 15:16:43
Post #1

Serial Uploader
Group Icon
Group: V.I.P
Posts: 33,147
Releases: 31431
From: Lithuania
On Forums: 10 years 4 months
Thanks: 359374 time(s)
Lithuania


(IMG:https://metalarea.org/images/audiocovers/2018_Jan/acov_tid300401_thumb.jpg)

*Artist: Battle Tales
*Album: The Ire Of The Condemned
*Year: 2018
*Genre: Folk Metal
*Country: Switzerland (IMG:https://metalarea.org/forum/style_images/flags/Switzerland.png)
*Format: mp3@CBR320kbps
*Size: 113MB

Tracklist:
01. Dark Omen (Intro) 01:54
02. Sweet Melodies Of Fury 06:10
03. The Battle Bard 05:10
04. Bloodlust Invoked 05:07
05. L'homme Est Un Loup Pour L'homme 05:44
06. War Of The Pints 04:33
07. Ire Of The Condemned 06:52
08. Beside A Dying Fire 05:46
09. Sailing To Unsung Havens 07:48
******************************
Total playing time: 49:04



Technical info
(IMG:https://metalarea.org/images/spectrogram/2018_Jan/39539727f4082f34eba2fe27f6d040d2.png)
Input File: 02. Sweet Melodies of Fury.mp3
Channels : 2
Sample Rate : 44100
Precision : 16-bit
Duration : 00:06:10.11 = 16322027 samples = 27758.5 CDDA sectors
File Size : 14.9M
Bit Rate : 323k
Sample Encoding: MPEG audio (layer I, II or III)
Comments :
Title=Sweet Melodies of Fury
Artist=Battle Tales
Album=The Ire of the Condemned
Tracknumber=2/9
Year=2018
Genre=9
Discnumber=1/1



Register


Go to the top of the page
  Insert nick Quick quote
+Quote Post
 
Start new topic
Replies (1 - 2)
post Jan 11 2018, 22:24:21
Post #2

hearer & reader
**************
Group: Металариец
Posts: 6,981
Releases: 89
From: Moscow
On Forums: 11 years 1 month
Thanks: 6695 time(s)
Russian Federation



фи
Go to the top of the page
  Insert nick Quick quote
+Quote Post
post Jan 28 2018, 19:19:30
Post #3

No More Tears
**************
Group: Металариец
Posts: 4,946
Releases: 115
From: Тбилиси, Грузия
On Forums: 12 years 3 months
Thanks: 2348 time(s)
Georgia


Этот хоть фолк-металом мокжно называть.
Go to the top of the page
  Insert nick Quick quote
+Quote Post

Reply to this topicStart new topic
1 User(s) are reading this topic (1 Guests and 0 Anonymous Users)
0 Members:

 



- Lo-Fi Version Support form
Copyrights and abuse reports form
Time is now: 23rd October 2018 - 10:59:20