Welcome Guest ( Log In | Register )

> Annysia - The Dark Knight (2017), Symphonic Metal
post Jan 11 2018, 15:22:06
Post #1

Serial Uploader
Group Icon
Group: V.I.P
Posts: 32,927
Releases: 31223
From: Lithuania
On Forums: 10 years 2 months
Thanks: 357481 time(s)
Lithuania


(IMG:https://metalarea.org/images/audiocovers/2018_Jan/acov_tid300403_thumb.jpg)

*Artist: Annysia
*Album: The Dark Knight
*Year: 2017
*Genre: Symphonic Metal
*Country: Spain (IMG:https://metalarea.org/forum/style_images/flags/Spain.png)
*Format: mp3@CBR320kbps
*Size: 69MB

Tracklist:
01. Intro.Dead Ships
02. Necromancer
03. From The Shadows
04. Dark Elven Queen
05. The Dark Knight
06. Nivek
******************************
Total playing time: 30:08



Technical info
(IMG:https://metalarea.org/images/spectrogram/2018_Jan/ae5975541bbae270dc0159032f19e54d.png)
Input File: 02. Necromancer (feat. Nekron).mp3
Channels : 2
Sample Rate : 44100
Precision : 16-bit
Duration : 00:06:08.34 = 16243706 samples = 27625.4 CDDA sectors
File Size : 14.8M
Bit Rate : 322k
Sample Encoding: MPEG audio (layer I, II or III)
Comments :
Title=Necromancer (feat. Nekron)
Artist=Annysia
Album=The Dark Knight
Tracknumber=2/6
Year=2018
Genre=9
Discnumber=1/1



Register


Go to the top of the page
  Insert nick Quick quote
+Quote Post
 
Start new topic
Replies (1 - 5)
post Jan 11 2018, 22:19:09
Post #2

hearer & reader
**************
Group: Металариец
Posts: 6,659
Releases: 83
From: Moscow
On Forums: 10 years 11 months
Thanks: 6530 time(s)
Russian Federation



ух ты, Розочка!


Thanks:
Go to the top of the page
  Insert nick Quick quote
+Quote Post
post Jan 12 2018, 02:13:34
Post #3

Group: Подсевший
Posts: 15
Releases: 0
From: Россия
On Forums: 7 years 3 weeks
Thanks: 4 time(s)
Russian Federation


Вокалистка страшна как термоядерная катастрофа! (IMG:style_emoticons/default/fear.gif)


Thanks:
(1) Ghostb,
Go to the top of the page
  Insert nick Quick quote
+Quote Post
post Jan 14 2018, 14:15:23
Post #4

Маньяк
**********
Group: Металариец
Posts: 1,089
Releases: 0
From: Russian Federation - St.Petersburg
On Forums: 9 years 5 months
Thanks: 231 time(s)
Russian Federation


ЦИТАТА(Xitrez @ Jan 12 2018, 04:13:34) *
Вокалистка страшна как термоядерная катастрофа! (IMG:style_emoticons/default/fear.gif)

Чувак с иммортала с ней не лучше! (IMG:style_emoticons/default/1488.gif)
Go to the top of the page
  Insert nick Quick quote
+Quote Post
post Jan 17 2018, 17:18:55
Post #5

Победитель судьбы
**************
Group: Металариец
Posts: 5,049
Releases: 0
From: Страны Мамонтов
On Forums: 11 years 5 months
Thanks: 1720 time(s)
Antarctica


ЦИТАТА(Xitrez @ Jan 12 2018, 04:13:34) *
Вокалистка страшна как термоядерная катастрофа! (IMG:style_emoticons/default/fear.gif)

Главное, чтобы пела хорошо
Go to the top of the page
  Insert nick Quick quote
+Quote Post
post Jan 27 2018, 17:44:48
Post #6

Перевозчик
**************
Group: Металариец
Posts: 2,754
Releases: 0
On Forums: 10 years 1 month
Thanks: 572 time(s)
Russian Federation


Не главное.
Go to the top of the page
  Insert nick Quick quote
+Quote Post

Reply to this topicStart new topic
1 User(s) are reading this topic (1 Guests and 0 Anonymous Users)
0 Members:

 



- Lo-Fi Version Support form
Copyrights and abuse reports form
Time is now: 15th August 2018 - 08:04:19